<?xml version="1.0" standalone="no"?>
<!DOCTYPE svg PUBLIC "-//W3C//DTD SVG 1.1//EN" "http://www.w3.org/Graphics/SVG/1.1/DTD/svg11.dtd" >
<svg xmlns="http://www.w3.org/2000/svg" xmlns:xlink="http://www.w3.org/1999/xlink" version="1.1">
<metadata>
Created by FontForge 20170731 at Thu May 11 10:47:25 2023
 By Aleksey,,,
Copyright 2014-2017 Indian Type Foundry (info@indiantypefoundry.com)
</metadata>
<defs>
<font id="Poppins-Black" horiz-adv-x="686" >
  <font-face 
    font-family="Poppins Black"
    font-weight="900"
    font-stretch="normal"
    units-per-em="2048"
    panose-1="0 0 10 0 0 0 0 0 0 0"
    ascent="1638"
    descent="-410"
    x-height="1155"
    cap-height="1450"
    bbox="-1282 -1284 4956 2324"
    underline-thickness="102"
    underline-position="-307"
    unicode-range="U+000D-FB02"
  />
<missing-glyph horiz-adv-x="1024" 
d="M0 0v1434h1024v-1434h-1024zM512 809l348 522h-696zM573 717l349 -522v1044zM164 102h696l-348 523zM102 1239v-1044l349 522z" />
    <glyph glyph-name=".notdef" horiz-adv-x="1024" 
d="M0 0v1434h1024v-1434h-1024zM512 809l348 522h-696zM573 717l349 -522v1044zM164 102h696l-348 523zM102 1239v-1044l349 522z" />
    <glyph glyph-name=".null" horiz-adv-x="0" 
 />
    <glyph glyph-name="nonmarkingreturn" horiz-adv-x="682" 
 />
    <glyph glyph-name="NULL" horiz-adv-x="0" 
 />
    <glyph glyph-name="NULL" horiz-adv-x="0" 
 />
    <glyph glyph-name="CR" unicode="&#xd;" horiz-adv-x="348" 
 />
    <glyph glyph-name="space" unicode=" " horiz-adv-x="348" 
 />
    <glyph glyph-name="exclam" unicode="!" horiz-adv-x="931" 
d="M272 575l-53 971h496l-53 -971h-390zM727 207q0 -96 -71 -159.5t-189 -63.5q-119 0 -190.5 63.5t-71.5 159.5q0 98 71.5 162.5t190.5 64.5q117 0 188.5 -64.5t71.5 -162.5z" />
    <glyph glyph-name="quotedbl" unicode="&#x22;" horiz-adv-x="1003" 
d="M121 1163l-29 482h359l-27 -482h-303zM582 1163l-29 482h358l-26 -482h-303z" />
    <glyph glyph-name="numbersign" unicode="#" horiz-adv-x="1910" 
d="M1104 668l41 194h-285l-41 -194h285zM961 0l53 254h-285l-53 -254h-420l53 254h-289v414h379l41 194h-280v414h368l52 240h419l-51 -240h285l51 240h422l-51 -240h235v-414h-323l-41 -194h225v-414h-315l-54 -254h-421z" />
    <glyph glyph-name="dollar" unicode="$" horiz-adv-x="1361" 
d="M612 -178v168q-155 15 -272.5 70t-191 159t-82.5 246h483q6 -85 63 -115v201q-179 48 -245 75q-219 87 -280 250q-26 70 -26 156q0 133 76.5 233t199 151t275.5 57v165h127v-165q245 -17 386.5 -136.5t154.5 -330.5h-489q-9 78 -52 104v-199q22 -7 69.5 -21.5t75.5 -23.5
t75 -26t76.5 -31t69.5 -37t65.5 -46t53.5 -55.5t44 -67.5t26.5 -80t10.5 -95q0 -188 -150 -312t-416 -130v-164h-127zM819 418q0 52 -80 90v-176q80 17 80 86zM549 1053q0 -53 63 -90v163q-63 -12 -63 -73z" />
    <glyph glyph-name="percent" unicode="%" horiz-adv-x="1921" 
d="M43 1106q0 181 102.5 276t268.5 95q164 0 265 -95t101 -276q0 -179 -101 -274t-265 -95q-165 0 -268 95t-103 274zM410 1212q-70 0 -70 -106q0 -105 70 -105q75 0 75 105q0 106 -75 106zM362 0l764 1456h435l-764 -1456h-435zM1143 350q0 181 102 276t266 95
q165 0 266 -95t101 -276t-101 -275.5t-266 -94.5q-164 0 -266 94.5t-102 275.5zM1509 457q-71 0 -71 -107q0 -106 71 -106q35 0 54.5 26.5t19.5 79.5q0 52 -20 79.5t-54 27.5z" />
    <glyph glyph-name="ampersand" unicode="&#x26;" horiz-adv-x="1701" 
d="M1225 1073h-414q0 38 -22.5 58t-53.5 20q-33 0 -56.5 -19.5t-23.5 -54.5q0 -64 90 -151l330 -320q31 60 51 125l7 19h440l-21 -54q-77 -206 -192 -364l342 -332h-500l-100 94q-191 -114 -453 -114q-264 0 -419.5 122t-155.5 322q0 124 65 229t193 174q-94 116 -94 246
q0 171 132 287.5t365 116.5q120 0 216 -34.5t154.5 -92t89 -128.5t30.5 -149zM682 338q73 0 137 22l-241 226q-70 -52 -70 -121q0 -54 45.5 -90.5t128.5 -36.5z" />
    <glyph glyph-name="quotesingle" unicode="'" horiz-adv-x="542" 
d="M121 1163l-29 482h359l-27 -482h-303z" />
    <glyph glyph-name="parenleft" unicode="(" horiz-adv-x="948" 
d="M973 -469h-438q-196 187 -310 492t-114 659t114 659t310 492h438v-43q-199 -209 -313.5 -502.5t-114.5 -605.5q0 -313 114.5 -607t313.5 -503v-41z" />
    <glyph glyph-name="parenright" unicode=")" horiz-adv-x="948" 
d="M-25 -469h439q196 187 310 492t114 659t-114 659t-310 492h-439v-43q199 -209 313.5 -502.5t114.5 -605.5q0 -313 -114.5 -607t-313.5 -503v-41z" />
    <glyph glyph-name="asterisk" unicode="*" horiz-adv-x="1148" 
d="M729 1524l-59 -244l190 172l137 -248l-227 -74l227 -69l-149 -260l-178 176l57 -240h-285l58 240l-174 -178l-154 264l227 74l-223 65l137 248l189 -170l-64 244h291z" />
    <glyph glyph-name="plus" unicode="+" horiz-adv-x="1128" 
d="M346 1219h436v-316h305v-416h-305v-313h-436v313h-305v416h305v316z" />
    <glyph glyph-name="comma" unicode="," horiz-adv-x="712" 
d="M66 -330l118 750h451l-270 -750h-299z" />
    <glyph glyph-name="hyphen" unicode="-" horiz-adv-x="1179" 
d="M41 512v375h954v-375h-954z" />
    <glyph glyph-name="period" unicode="." horiz-adv-x="653" 
d="M588 207q0 -96 -71 -159.5t-189 -63.5q-119 0 -190.5 63.5t-71.5 159.5q0 98 71.5 162.5t190.5 64.5q117 0 188.5 -64.5t71.5 -162.5z" />
    <glyph glyph-name="slash" unicode="/" horiz-adv-x="817" 
d="M-74 -406l545 2362h434l-543 -2362h-436z" />
    <glyph glyph-name="zero" unicode="0" horiz-adv-x="1355" 
d="M66 770q0 137 22 251.5t69.5 209.5t118.5 161t173.5 102t230.5 36q127 0 229.5 -36t173.5 -102t119 -161t70 -209.5t22 -251.5q0 -173 -36 -310t-108.5 -239.5t-191.5 -157.5t-278 -55q-128 0 -230.5 36t-173.5 102t-118.5 161t-69.5 210t-22 253zM846 770q0 62 -3 106.5
t-13 89.5t-28 72.5t-48.5 44.5t-73.5 17q-54 0 -89 -24t-51.5 -73t-22 -101.5t-5.5 -131.5q0 -63 3 -107.5t13 -90t28 -72.5t49 -44.5t75 -17.5q43 0 73.5 17t48.5 44.5t28 73t13 90t3 107.5z" />
    <glyph glyph-name="one" unicode="1" horiz-adv-x="817" 
d="M238 0v1071h-218v426h695v-1497h-477z" />
    <glyph glyph-name="two" unicode="2" horiz-adv-x="1159" 
d="M57 20v342q100 75 174.5 135t158 137t137 142t89 137t35.5 134q0 49 -21 75.5t-57 26.5q-40 0 -63.5 -42t-17.5 -128h-441q4 116 36 209.5t83.5 156.5t121.5 105t147.5 61t164.5 19q135 0 235.5 -36t158 -100t85 -142t27.5 -171q0 -107 -38 -211.5t-105 -192t-147 -159.5
t-173 -131h469v-367h-1059z" />
    <glyph glyph-name="three" unicode="3" horiz-adv-x="1259" 
d="M92 1028q6 244 142 373t387 129q240 0 373.5 -118t133.5 -300q0 -76 -21 -137t-56 -99.5t-70 -62t-72 -35.5v-8q246 -92 246 -342q0 -200 -136 -321t-370 -121q-129 0 -231 29.5t-179 91t-119 163.5t-44 240h442q-9 -150 111 -150q37 0 61.5 28t24.5 73q0 58 -38 87.5
t-128 29.5h-76v366h74q139 -8 139 111q0 52 -21.5 76t-54.5 24q-75 0 -75 -127h-443z" />
    <glyph glyph-name="four" unicode="4" horiz-adv-x="1441" 
d="M748 0v225h-642v379l611 871h489v-857h148v-393h-148v-225h-458zM563 618h221v338z" />
    <glyph glyph-name="five" unicode="5" horiz-adv-x="1351" 
d="M193 1497h1003v-399h-594v-172q81 75 242 75q85 0 156 -25.5t120 -70.5t83.5 -106.5t50.5 -132t16 -148.5q0 -246 -137.5 -382t-380.5 -136q-265 0 -416 133t-146 346h443q0 -33 22 -61.5t74 -28.5q100 0 100 137q0 60 -27.5 90.5t-78.5 30.5q-43 0 -65.5 -20t-22.5 -47
h-442v917z" />
    <glyph glyph-name="six" unicode="6" horiz-adv-x="1296" 
d="M1171 1042h-423q-11 61 -35.5 90t-73.5 29q-41 0 -67 -21.5t-39.5 -67t-18 -99t-4.5 -135.5q38 57 107 90t157 33q197 0 314.5 -122t117.5 -350q0 -232 -142 -367.5t-386 -135.5q-135 0 -237 38.5t-165 103.5t-102 163t-53.5 205t-14.5 241q0 414 132.5 600.5
t429.5 186.5q102 0 185 -27t139.5 -72.5t96 -108.5t59 -131t23.5 -143zM662 612q-55 0 -88 -30t-33 -86q0 -121 121 -121q120 0 120 121q0 56 -32.5 86t-87.5 30z" />
    <glyph glyph-name="seven" unicode="7" horiz-adv-x="1048" 
d="M37 1497h991v-334l-467 -1163h-467l471 1108h-528v389z" />
    <glyph glyph-name="eight" unicode="8" horiz-adv-x="1345" 
d="M305 823q-174 99 -174 307q0 81 33 152t97 127t170 88.5t241 32.5t241 -32.5t170 -88.5t96.5 -127t32.5 -152q0 -208 -174 -307q207 -121 207 -362q0 -94 -30.5 -173.5t-84 -136t-126 -96.5t-156.5 -59t-176 -19q-115 0 -217.5 31t-182.5 89.5t-127 152.5t-47 211
q0 241 207 362zM672 934q41 0 67.5 30.5t26.5 90.5q0 57 -26.5 91t-67.5 34t-67.5 -34t-26.5 -91q0 -60 26.5 -90.5t67.5 -30.5zM672 629q-61 0 -97 -39.5t-36 -102.5q0 -61 35 -100t98 -39t98 39t35 100q0 63 -36 102.5t-97 39.5z" />
    <glyph glyph-name="nine" unicode="9" horiz-adv-x="1222" 
d="M96 467h424q11 -60 38 -89.5t77 -29.5q40 0 65.5 21t37.5 68t16 99t4 136q-38 -57 -107 -90t-157 -33q-195 0 -314 122.5t-119 354.5q0 231 143.5 367.5t385.5 136.5q136 0 237.5 -36.5t165 -98.5t103 -157.5t54.5 -201t15 -239.5q0 -159 -17 -282.5t-56 -224.5
t-101 -167t-153.5 -101.5t-212.5 -35.5q-123 0 -223.5 41t-164 109.5t-100 153t-41.5 177.5zM606 897q55 0 88 30.5t33 86.5q0 121 -121 121t-121 -121q0 -56 33 -86.5t88 -30.5z" />
    <glyph glyph-name="colon" unicode=":" horiz-adv-x="653" 
d="M588 207q0 -96 -71 -159.5t-189 -63.5q-119 0 -190.5 63.5t-71.5 159.5q0 98 71.5 162.5t190.5 64.5q117 0 188.5 -64.5t71.5 -162.5zM588 1018q0 -96 -71 -159.5t-189 -63.5q-119 0 -190.5 63.5t-71.5 159.5q0 98 71.5 162.5t190.5 64.5q117 0 188.5 -64.5t71.5 -162.5z
" />
    <glyph glyph-name="semicolon" unicode=";" horiz-adv-x="788" 
d="M662 987q0 -96 -71.5 -159.5t-189.5 -63.5q-119 0 -190.5 63.5t-71.5 159.5q0 98 71.5 162.5t190.5 64.5q118 0 189.5 -65t71.5 -162zM111 -330l118 750h451l-270 -750h-299z" />
    <glyph glyph-name="less" unicode="&#x3c;" horiz-adv-x="1017" 
d="M608 696l369 -440h-567l-369 440l369 443h567z" />
    <glyph glyph-name="equal" unicode="=" horiz-adv-x="1282" 
d="M41 203v411h1200v-411h-1200zM41 776v412h1200v-412h-1200z" />
    <glyph glyph-name="greater" unicode="&#x3e;" horiz-adv-x="1017" 
d="M41 256l369 440l-369 443h567l369 -443l-369 -440h-567z" />
    <glyph glyph-name="question" unicode="?" horiz-adv-x="1101" 
d="M37 1122q-4 93 26 175t92 146.5t165.5 102t236.5 37.5q148 0 260 -48t178 -150t66 -248q0 -181 -121.5 -291t-318.5 -115l-13 -145h-401l-12 434h172q124 0 188 28t61 91q-1 36 -21 55.5t-50 19.5q-41 0 -60.5 -26t-19.5 -66h-428zM674 207q0 -96 -71 -159.5t-189 -63.5
q-119 0 -190.5 63.5t-71.5 159.5q0 98 71.5 162.5t190.5 64.5q117 0 188.5 -64.5t71.5 -162.5z" />
    <glyph glyph-name="at" unicode="@" horiz-adv-x="2312" 
d="M1593 -8q-113 0 -191 41t-114 117q-52 -79 -137.5 -121.5t-192.5 -42.5q-149 0 -233 85.5t-84 241.5q0 146 55.5 274t159 207.5t231.5 79.5q84 0 140.5 -34.5t77.5 -94.5l20 119h352l-80 -452q-23 -129 60 -129q56 0 94.5 50t55 126.5t16.5 173.5q0 214 -147 344.5
t-394 130.5q-166 0 -315 -63.5t-255 -171t-167.5 -254.5t-61.5 -308q0 -232 135 -370t371 -138q209 0 381 74l78 -285q-214 -94 -479 -94q-183 0 -334.5 56t-257 157t-163.5 246.5t-58 321.5q0 244 90 455t245.5 358t370.5 231t459 84q186 0 342.5 -56t265 -155.5
t168.5 -241.5t60 -309q0 -137 -37 -255t-106 -207t-177.5 -140t-243.5 -51zM1243 459q0 47 -24.5 74.5t-63.5 27.5q-54 0 -94.5 -46t-40.5 -116q0 -45 24 -71.5t64 -26.5q52 0 93.5 45t41.5 113z" />
    <glyph glyph-name="A" unicode="A" horiz-adv-x="1583" 
d="M1104 0l-72 219h-483l-72 -219h-477l530 1450h525l528 -1450h-479zM922 561l-131 404l-132 -404h263z" />
    <glyph glyph-name="B" unicode="B" horiz-adv-x="1400" 
d="M885 465q0 104 -121 104h-207v-204h207q62 0 91.5 23.5t29.5 76.5zM854 985q0 105 -121 105h-176v-205h176q62 0 91.5 24t29.5 76zM1350 397q0 -191 -126 -294t-362 -103h-760v1450h740q222 0 348.5 -96t126.5 -281q0 -127 -67 -214t-177 -116q130 -32 203.5 -126.5
t73.5 -219.5z" />
    <glyph glyph-name="C" unicode="C" horiz-adv-x="1542" 
d="M61 727q0 216 86 382.5t249.5 260.5t381.5 94q284 0 471 -155.5t232 -415.5h-480q-32 72 -93 111.5t-138 39.5q-115 0 -181.5 -86t-66.5 -231t66.5 -231t181.5 -86q77 0 138 39.5t93 111.5h480q-45 -260 -232 -415.5t-471 -155.5q-218 0 -381.5 94t-249.5 260.5
t-86 382.5z" />
    <glyph glyph-name="D" unicode="D" horiz-adv-x="1521" 
d="M707 1450q171 0 312.5 -54t238 -149.5t149.5 -228.5t53 -289q0 -155 -53 -288.5t-149 -231t-238.5 -153.5t-312.5 -56h-605v1450h605zM557 406h109q154 0 243.5 84t89.5 239t-89.5 239.5t-243.5 84.5h-109v-647z" />
    <glyph glyph-name="E" unicode="E" horiz-adv-x="1138" 
d="M1069 1450v-363h-512v-178h451v-342h-451v-205h512v-362h-967v1450h967z" />
    <glyph glyph-name="F" unicode="F" horiz-adv-x="1177" 
d="M102 0v1450h1024v-360h-569v-201h410v-342h-410v-547h-455z" />
    <glyph glyph-name="G" unicode="G" horiz-adv-x="1540" 
d="M795 1464q285 0 463.5 -137.5t211.5 -372.5h-479q-57 90 -194 90q-130 0 -202.5 -85t-72.5 -232q0 -170 80 -254t246 -84q158 0 254 127h-363v322h740v-455q-33 -57 -73 -108t-101.5 -105t-132.5 -92.5t-168 -63t-205 -24.5q-225 0 -393 94t-256.5 260.5t-88.5 382.5
q0 161 51 297t145 233.5t232 152t306 54.5z" />
    <glyph glyph-name="H" unicode="H" horiz-adv-x="1546" 
d="M989 0v565h-432v-565h-455v1450h455v-522h432v522h455v-1450h-455z" />
    <glyph glyph-name="I" unicode="I" horiz-adv-x="659" 
d="M102 0v1450h455v-1450h-455z" />
    <glyph glyph-name="J" unicode="J" horiz-adv-x="1208" 
d="M662 514v936h452v-936q0 -260 -136.5 -394t-381.5 -134q-129 0 -234 36t-181.5 105.5t-118.5 178.5t-42 249h449q0 -160 106 -160q87 0 87 119z" />
    <glyph glyph-name="K" unicode="K" horiz-adv-x="1546" 
d="M979 0l-422 629v-629h-455v1450h455v-610l416 610h514l-500 -694l533 -756h-541z" />
    <glyph glyph-name="L" unicode="L" horiz-adv-x="1036" 
d="M102 1450h455v-1106h438v-344h-893v1450z" />
    <glyph glyph-name="M" unicode="M" horiz-adv-x="1947" 
d="M102 0v1450h557l320 -870l311 870h555v-1450h-452v723l-224 -723h-389l-223 723v-723h-455z" />
    <glyph glyph-name="N" unicode="N" horiz-adv-x="1595" 
d="M1038 1450h455v-1450h-455l-481 729v-729h-455v1450h455l481 -741v741z" />
    <glyph glyph-name="O" unicode="O" horiz-adv-x="1613" 
d="M1552 731q0 -160 -58.5 -299.5t-159 -237t-237 -153t-288.5 -55.5q-153 0 -290.5 55.5t-238.5 153t-160 237t-59 299.5q0 213 101 384.5t271.5 265.5t375.5 94q154 0 290.5 -55.5t236.5 -152.5t158 -236.5t58 -299.5zM524 731q0 -148 74 -234.5t211 -86.5q134 0 208.5 87
t74.5 234q0 150 -74 237t-209 87q-137 0 -211 -87t-74 -237z" />
    <glyph glyph-name="P" unicode="P" horiz-adv-x="1329" 
d="M557 819h129q141 0 141 133t-141 133h-129v-266zM1288 952q0 -102 -35.5 -190t-102.5 -155.5t-173.5 -106.5t-239.5 -39h-180v-461h-455v1450h635q267 0 409 -135.5t142 -362.5z" />
    <glyph glyph-name="Q" unicode="Q" horiz-adv-x="1613" 
d="M524 731q0 -148 74 -234.5t211 -86.5q134 0 208.5 87t74.5 234q0 150 -74 237t-209 87q-137 0 -211 -87t-74 -237zM1552 731q0 -175 -67 -321t-187 -248l295 -398h-536l-139 230q-47 -8 -109 -8q-153 0 -290.5 55.5t-238.5 153t-160 237t-59 299.5q0 213 101 384.5
t271.5 265.5t375.5 94q154 0 290.5 -55.5t236.5 -152.5t158 -236.5t58 -299.5z" />
    <glyph glyph-name="R" unicode="R" horiz-adv-x="1372" 
d="M868 946q0 57 -34 90t-97 33h-180v-246h180q131 0 131 123zM102 1450h676q133 0 239.5 -36.5t173.5 -101.5t102.5 -150.5t35.5 -186.5q0 -146 -80.5 -258t-232.5 -162l315 -555h-500l-272 520h-2v-520h-455v1450z" />
    <glyph glyph-name="S" unicode="S" horiz-adv-x="1280" 
d="M1223 449q0 -204 -148 -333.5t-405 -129.5q-126 0 -233 29.5t-190 87.5t-133 150.5t-57 211.5h484q9 -125 110 -125q37 0 62.5 18t25.5 54q0 31 -24 56.5t-63.5 44.5t-91 37t-108 38.5t-113 45.5t-107 61t-89.5 81t-61 111t-21 145q0 141 75 243t199 151t281 49
q265 0 422 -123t166 -346h-489q-3 61 -31 87.5t-70 26.5q-29 0 -47 -19t-18 -54q0 -32 29 -59.5t76.5 -47.5t108 -44.5t123.5 -48.5t123.5 -61t108 -81t76.5 -110t29 -146z" />
    <glyph glyph-name="T" unicode="T" horiz-adv-x="1261" 
d="M20 1090v360h1221v-360h-385v-1090h-455v1090h-381z" />
    <glyph glyph-name="U" unicode="U" horiz-adv-x="1472" 
d="M94 633v817h453v-817q0 -217 186 -217q98 0 145.5 59t47.5 158v817h452v-817q0 -126 -33.5 -231.5t-93 -181.5t-141.5 -129t-180 -79t-207 -26q-137 0 -251 41.5t-199 121t-132 203.5t-47 281z" />
    <glyph glyph-name="V" unicode="V" horiz-adv-x="1562" 
d="M782 453l297 997h484l-488 -1450h-588l-487 1450h483z" />
    <glyph glyph-name="W" unicode="W" horiz-adv-x="2252" 
d="M393 0l-332 1450h490l131 -913l197 913h495l197 -913l131 913h489l-331 -1450h-566l-168 823l-168 -823h-565z" />
    <glyph glyph-name="X" unicode="X" horiz-adv-x="1564" 
d="M1026 0l-266 377l-221 -377h-519l478 748l-498 702h539l256 -363l213 363h518l-469 -733l508 -717h-539z" />
    <glyph glyph-name="Y" unicode="Y" horiz-adv-x="1495" 
d="M520 440l-520 1010h520l232 -514l231 514h512l-520 -1010v-440h-455v440z" />
    <glyph glyph-name="Z" unicode="Z" horiz-adv-x="1290" 
d="M1188 1450v-342l-582 -746h582v-362h-1086v342l574 748h-574v360h1086z" />
    <glyph glyph-name="bracketleft" unicode="[" horiz-adv-x="1091" 
d="M195 -469v2302h782v-365h-356v-1572h356v-365h-782z" />
    <glyph glyph-name="backslash" unicode="\" horiz-adv-x="1798" 
d="M844 1956l491 -2362h-434l-491 2362h434z" />
    <glyph glyph-name="bracketright" unicode="]" horiz-adv-x="1091" 
d="M897 -469v2302h-782v-365h356v-1572h-356v-365h782z" />
    <glyph glyph-name="asciicircum" unicode="^" horiz-adv-x="1552" 
d="M1051 332l-273 610l-276 -610h-451l504 1124h446l500 -1124h-450z" />
    <glyph glyph-name="underscore" unicode="_" horiz-adv-x="1564" 
d="M100 -528v442h1383v-442h-1383z" />
    <glyph glyph-name="grave" unicode="`" horiz-adv-x="663" 
d="M20 1425v336l531 -225v-303z" />
    <glyph glyph-name="a" unicode="a" horiz-adv-x="1392" 
d="M41 578q0 272 135.5 431.5t341.5 159.5q113 0 195.5 -46t124.5 -126v158h452v-1155h-452v158q-42 -80 -124.5 -126t-195.5 -46q-206 0 -341.5 160t-135.5 432zM838 578q0 92 -47.5 143t-120.5 51t-120.5 -51t-47.5 -143t47.5 -143.5t120.5 -51.5t120.5 51.5t47.5 143.5z
" />
    <glyph glyph-name="b" unicode="b" horiz-adv-x="1392" 
d="M557 997q43 80 124 126t193 46q206 0 342 -159.5t136 -431.5t-136 -432t-342 -160q-112 0 -193 46t-124 126v-158h-455v1516h455v-519zM891 578q0 92 -47.5 143t-120.5 51t-120.5 -51t-47.5 -143t47.5 -143.5t120.5 -51.5t120.5 51.5t47.5 143.5z" />
    <glyph glyph-name="c" unicode="c" horiz-adv-x="1247" 
d="M41 578q0 181 75.5 316t208.5 205t306 70q225 0 379.5 -127t195.5 -352h-481q-26 90 -104 90q-55 0 -87 -50.5t-32 -151.5t32 -152t87 -51q78 0 104 90h481q-41 -225 -195.5 -352t-379.5 -127q-263 0 -426.5 159.5t-163.5 432.5z" />
    <glyph glyph-name="d" unicode="d" horiz-adv-x="1392" 
d="M41 578q0 272 135.5 431.5t341.5 159.5q113 0 194 -46t124 -126v519h454v-1516h-454v158q-43 -80 -124 -126t-194 -46q-206 0 -341.5 160t-135.5 432zM838 578q0 92 -47.5 143t-120.5 51t-120.5 -51t-47.5 -143t47.5 -143.5t120.5 -51.5t120.5 51.5t47.5 143.5z" />
    <glyph glyph-name="e" unicode="e" horiz-adv-x="1261" 
d="M631 813q-122 0 -142 -117h271q0 57 -37 87t-92 30zM1196 416q-37 -187 -193.5 -308.5t-371.5 -121.5q-263 0 -426.5 159.5t-163.5 432.5q0 181 75.5 316t208.5 205t306 70q263 0 426.5 -156.5t163.5 -424.5q0 -39 -7 -90h-729q8 -150 123 -150q76 0 107 68h481z" />
    <glyph glyph-name="f" unicode="f" horiz-adv-x="788" 
d="M143 0v776h-123v379h123q3 247 167.5 371t457.5 98v-387q-79 9 -117.5 -9t-48.5 -73h166v-379h-170v-776h-455z" />
    <glyph glyph-name="g" unicode="g" horiz-adv-x="1392" 
d="M41 578q0 272 135.5 431.5t341.5 159.5q113 0 195.5 -46t124.5 -126v158h452v-1135q0 -94 -19.5 -178t-64 -160t-111.5 -130.5t-168 -86.5t-227 -32q-278 0 -440 129.5t-186 353.5h446q18 -90 148 -90q80 0 125 41t45 153v138q-42 -80 -124.5 -126t-195.5 -46
q-206 0 -341.5 160t-135.5 432zM838 578q0 92 -47.5 143t-120.5 51t-120.5 -51t-47.5 -143t47.5 -143.5t120.5 -51.5t120.5 51.5t47.5 143.5z" />
    <glyph glyph-name="h" unicode="h" horiz-adv-x="1427" 
d="M102 0v1516h455v-537q54 83 143 133.5t211 50.5q198 0 310 -133.5t112 -359.5v-670h-452v612q0 83 -44 131t-118 48q-75 0 -118.5 -48t-43.5 -131v-612h-455z" />
    <glyph glyph-name="i" unicode="i" horiz-adv-x="659" 
d="M102 0v1155h455v-1155h-455zM332 1247q-119 0 -190.5 63.5t-71.5 159.5q0 98 71.5 163t190.5 65q117 0 188.5 -65t71.5 -163q0 -96 -71 -159.5t-189 -63.5z" />
    <glyph glyph-name="j" unicode="j" horiz-adv-x="655" 
d="M328 1247q-119 0 -190.5 63.5t-71.5 159.5q0 98 71.5 163t190.5 65q117 0 188.5 -65t71.5 -163q0 -96 -71 -159.5t-189 -63.5zM102 1155h455v-1235q0 -473 -475 -473h-152v387h88q44 0 64 19t20 59v1243z" />
    <glyph glyph-name="k" unicode="k" horiz-adv-x="1384" 
d="M102 0v1516h455v-793l289 432h528l-432 -582l442 -573h-542l-285 461v-461h-455z" />
    <glyph glyph-name="l" unicode="l" horiz-adv-x="659" 
d="M102 0v1516h455v-1516h-455z" />
    <glyph glyph-name="m" unicode="m" horiz-adv-x="2203" 
d="M1657 0v612q0 73 -44 115.5t-118 42.5q-75 0 -118.5 -42.5t-43.5 -115.5v-612h-452v612q0 73 -44 115.5t-118 42.5q-75 0 -118.5 -42.5t-43.5 -115.5v-612h-455v1155h455v-156q50 73 134.5 118.5t199.5 45.5q125 0 221 -54t154 -153q64 91 161.5 149t217.5 58
q221 0 342.5 -132.5t121.5 -360.5v-670h-452z" />
    <glyph glyph-name="n" unicode="n" horiz-adv-x="1427" 
d="M881 0v612q0 83 -44 131t-118 48q-75 0 -118.5 -48t-43.5 -131v-612h-455v1155h455v-176q54 83 143 133.5t211 50.5q198 0 310 -133.5t112 -359.5v-670h-452z" />
    <glyph glyph-name="o" unicode="o" horiz-adv-x="1302" 
d="M1262 578q0 -180 -80.5 -316t-218 -206t-312.5 -70q-130 0 -242 41t-193.5 116t-128 187t-46.5 248q0 180 80 315.5t217.5 205.5t312.5 70t312.5 -70t218 -205.5t80.5 -315.5zM502 578q0 -98 42 -148.5t107 -50.5q64 0 107 51t43 148t-42.5 147.5t-107.5 50.5
q-64 0 -106.5 -50t-42.5 -148z" />
    <glyph glyph-name="p" unicode="p" horiz-adv-x="1392" 
d="M557 997q43 80 124 126t193 46q206 0 342 -159.5t136 -431.5t-136 -432t-342 -160q-112 0 -193 46t-124 126v-711h-455v1708h455v-158zM891 578q0 92 -47.5 143t-120.5 51t-120.5 -51t-47.5 -143t47.5 -143.5t120.5 -51.5t120.5 51.5t47.5 143.5z" />
    <glyph glyph-name="q" unicode="q" horiz-adv-x="1392" 
d="M41 569q0 169 71 306.5t187 212.5t252 75q93 0 162.5 -25.5t124.5 -84.5v102h452v-1708h-452v680q-62 -72 -130.5 -105.5t-156.5 -33.5q-102 0 -194.5 42.5t-162.5 117t-111.5 184.5t-41.5 237zM838 578q0 99 -52.5 145.5t-115.5 46.5q-62 0 -115 -50.5t-53 -150.5
q0 -52 16 -90.5t42.5 -58t54 -28.5t55.5 -9t55.5 10.5t53.5 31.5t42.5 61t16.5 92z" />
    <glyph glyph-name="r" unicode="r" horiz-adv-x="956" 
d="M557 473v-473h-455v1155h455v-213q70 100 170 160.5t209 60.5v-485h-129q-129 0 -189.5 -45.5t-60.5 -159.5z" />
    <glyph glyph-name="s" unicode="s" horiz-adv-x="1185" 
d="M1108 346q0 -157 -133 -258.5t-359 -101.5q-246 0 -402 116t-171 297h436q7 -50 43.5 -75t91.5 -25q34 0 55 15.5t21 37.5q0 30 -33 49t-85.5 30t-116 22.5t-127 33.5t-116 55.5t-85.5 96.5t-33 149q0 165 128.5 273t363.5 108q120 0 215.5 -32t158.5 -89.5t100 -130.5
t50 -161h-403q-9 46 -43 72t-89 26q-71 0 -71 -53q0 -23 20.5 -38.5t55.5 -25.5t80.5 -18.5t95.5 -20t100 -27t95.5 -42.5t80.5 -63t55.5 -92.5t20.5 -127.5z" />
    <glyph glyph-name="t" unicode="t" horiz-adv-x="892" 
d="M174 473v303h-143v379h143v279h455v-279h188v-379h-188v-311q0 -40 20 -59t64 -19h108v-387h-172q-475 0 -475 473z" />
    <glyph glyph-name="u" unicode="u" horiz-adv-x="1427" 
d="M1325 1155v-1155h-455v176q-54 -83 -143 -133.5t-211 -50.5q-198 0 -310 133.5t-112 359.5v670h453v-612q0 -83 44 -130.5t118 -47.5q75 0 118 47.5t43 130.5v612h455z" />
    <glyph glyph-name="v" unicode="v" horiz-adv-x="1374" 
d="M18 1155h484l186 -723l184 723h484l-385 -1155h-568z" />
    <glyph glyph-name="w" unicode="w" horiz-adv-x="1849" 
d="M270 0l-272 1155h451l96 -702l149 702h486l157 -711l99 711h419l-274 -1155h-512l-139 651l-148 -651h-512z" />
    <glyph glyph-name="x" unicode="x" horiz-adv-x="1368" 
d="M860 0l-194 260l-146 -260h-500l388 608l-408 547h508l194 -262l148 262h500l-400 -594l418 -561h-508z" />
    <glyph glyph-name="y" unicode="y" horiz-adv-x="1386" 
d="M702 569l203 586h502l-739 -1708h-498l291 610l-481 1098h505z" />
    <glyph glyph-name="z" unicode="z" horiz-adv-x="1060" 
d="M999 1155v-356l-460 -422h481v-377h-979v356l440 422h-434v377h952z" />
    <glyph glyph-name="braceleft" unicode="{" horiz-adv-x="991" 
d="M311 365q0 63 -43 97t-145 34v370q104 0 146 31t42 98q0 45 -25.5 191t-25.5 223q0 202 125.5 313t339.5 111h156v-363h-70q-65 0 -93 -28t-28 -82q0 -38 18.5 -180t18.5 -203q0 -120 -55 -197t-166 -98v-4q111 -21 166 -98t55 -197q0 -61 -18.5 -203t-18.5 -180
q0 -111 121 -111h70v-362h-156q-214 0 -339.5 111t-125.5 313q0 77 25.5 223t25.5 191z" />
    <glyph glyph-name="bar" unicode="|" horiz-adv-x="536" 
d="M41 1696h455v-1991h-455v1991z" />
    <glyph glyph-name="braceright" unicode="}" horiz-adv-x="991" 
d="M680 365q0 63 43 97t145 34v370q-104 0 -146 31t-42 98q0 45 25.5 191t25.5 223q0 202 -125.5 313t-339.5 111h-155v-363h69q65 0 93 -28t28 -82q0 -38 -18.5 -180t-18.5 -203q0 -120 55 -197t166 -98v-4q-111 -21 -166 -98t-55 -197q0 -61 18.5 -203t18.5 -180
q0 -111 -121 -111h-69v-362h155q214 0 339.5 111t125.5 313q0 77 -25.5 223t-25.5 191z" />
    <glyph glyph-name="asciitilde" unicode="~" horiz-adv-x="1456" 
d="M41 371q44 278 169 409t312 131q66 0 133.5 -21.5t112 -47t96 -47t90.5 -21.5q55 0 82.5 32t38.5 109h340q-43 -277 -169 -408.5t-314 -131.5q-66 0 -133 21.5t-111.5 47t-96 47t-91.5 21.5q-55 0 -83 -32.5t-40 -108.5h-336z" />
    <glyph glyph-name="uni00A0" unicode="&#xa0;" horiz-adv-x="348" 
 />
    <glyph glyph-name="exclamdown" unicode="&#xa1;" horiz-adv-x="931" 
d="M272 588l-53 -971h496l-53 971h-390zM727 956q0 96 -71.5 160t-188.5 64q-119 0 -190.5 -64t-71.5 -160q0 -98 71.5 -162.5t190.5 -64.5q117 0 188.5 64.5t71.5 162.5z" />
    <glyph glyph-name="cent" unicode="&#xa2;" horiz-adv-x="1185" 
d="M1145 420q-6 -98 -47 -178t-106.5 -133t-148 -84.5t-175.5 -38.5v-156h-127v156q-234 21 -367 157.5t-133 376.5q0 237 133 373.5t367 157.5v155h127v-155q125 -9 228.5 -59.5t172 -147.5t76.5 -226h-416q-14 38 -45.5 55t-67.5 17q-69 0 -105 -45.5t-36 -126.5
t36 -125.5t105 -44.5q36 0 70.5 18.5t42.5 53.5h416z" />
    <glyph glyph-name="sterling" unicode="&#xa3;" horiz-adv-x="1390" 
d="M186 1122q0 214 144.5 335.5t378.5 121.5q253 0 392.5 -135t153.5 -357h-417q-14 123 -113 123q-107 0 -107 -141q0 -47 46 -207h344v-301h-308q-29 -146 -127 -223h687v-350h-1131l-55 213q94 71 142 156t58 204h-211v301h158q-35 152 -35 260z" />
    <glyph glyph-name="currency" unicode="&#xa4;" horiz-adv-x="1234" 
d="M741 772q0 63 -33.5 92t-84.5 29t-85 -29t-34 -92q0 -60 34 -88.5t85 -28.5t84.5 28.5t33.5 88.5zM948 283l-139 139q-83 -27 -186 -27t-195 29l-141 -141l-164 166l106 106q-73 92 -73 221q0 133 75 223l-108 109l164 166l149 -150q86 25 187 25q91 0 178 -23l147 148
l164 -166l-104 -102q82 -91 82 -230q0 -130 -78 -227l100 -100z" />
    <glyph glyph-name="yen" unicode="&#xa5;" horiz-adv-x="1495" 
d="M1382 262h-407v-262h-455v262h-411v295h352l-39 74h-313v295h161l-270 524h520l232 -582l231 582h512l-270 -524h157v-295h-309l-39 -74h348v-295z" />
    <glyph glyph-name="brokenbar" unicode="&#xa6;" horiz-adv-x="884" 
d="M215 588h455v-883h-455v883zM670 815h-455v881h455v-881z" />
    <glyph glyph-name="section" unicode="&#xa7;" horiz-adv-x="1218" 
d="M121 1090q0 176 132 283.5t370 107.5q221 0 346 -118.5t141 -311.5h-448q-5 110 -50 110q-32 0 -32 -49q0 -56 60.5 -101t244.5 -137q293 -160 293 -374q0 -96 -44.5 -167.5t-154.5 -125.5q119 -130 119 -297q0 -176 -132 -283.5t-370 -107.5q-221 0 -346 118.5
t-141 311.5h448q5 -111 49 -111q33 0 33 49q0 55 -60 100t-245 140q-291 150 -291 373q0 214 195 295q-117 128 -117 295zM694 500q0 49 -20.5 80.5t-59.5 31.5t-62.5 -31t-23.5 -81q0 -49 21.5 -81t58.5 -32q39 0 62.5 32.5t23.5 80.5z" />
    <glyph glyph-name="dieresis" unicode="&#xa8;" horiz-adv-x="854" 
d="M195 1270q-74 0 -124.5 50.5t-50.5 123.5q0 76 50.5 127t124.5 51q77 0 127.5 -51t50.5 -127q0 -74 -51 -124t-127 -50zM655 1270q-73 0 -123.5 50t-50.5 124q0 76 50 127t124 51q77 0 128 -51t51 -127q0 -74 -51.5 -124t-127.5 -50z" />
    <glyph glyph-name="copyright" unicode="&#xa9;" horiz-adv-x="1579" 
d="M61 733q0 216 92 385t258.5 263t379.5 94t379 -94t257 -263t91 -385t-91 -385.5t-257 -264.5t-379 -95t-379.5 95t-258.5 264.5t-92 385.5zM1376 733q0 279 -158 443.5t-427 164.5q-271 0 -428.5 -164.5t-157.5 -443.5q0 -278 158 -445t428 -167q269 0 427 167t158 445z
M1233 815q-24 168 -145.5 268.5t-288.5 100.5q-209 0 -336 -122.5t-127 -330.5t127 -330t336 -122q167 0 288.5 100t145.5 268h-377q-21 -72 -78 -72q-92 0 -92 156t92 156q57 0 78 -72h377z" />
    <glyph glyph-name="ordfeminine" unicode="&#xaa;" horiz-adv-x="985" 
d="M381 717q-149 0 -244.5 96.5t-95.5 271.5q0 176 94.5 274.5t241.5 98.5q83 0 137.5 -21.5t93.5 -66.5v80h336v-723h-336v80q-40 -46 -92.5 -68t-134.5 -22zM498 1192q-47 0 -79 -29.5t-32 -79.5q0 -49 31.5 -73.5t79.5 -24.5q47 0 78.5 27.5t31.5 77.5q0 49 -31.5 75.5
t-78.5 26.5z" />
    <glyph glyph-name="guillemotleft" unicode="&#xab;" horiz-adv-x="1265" 
d="M500 604l162 -358h-412l-158 358l158 359h412zM1022 604l162 -358h-412l-158 358l158 359h412z" />
    <glyph glyph-name="logicalnot" unicode="&#xac;" horiz-adv-x="1593" 
d="M113 578v340h1347v-601h-454v261h-893z" />
    <glyph glyph-name="uni00AD" unicode="&#xad;" horiz-adv-x="1179" 
d="M41 512v375h954v-375h-954z" />
    <glyph glyph-name="registered" unicode="&#xae;" horiz-adv-x="1046" 
d="M524 1343q-147 0 -234 -88t-87 -235q0 -144 87.5 -234t233.5 -90q145 0 232.5 90t87.5 234q0 147 -87 235t-233 88zM524 563q-202 0 -332.5 128.5t-130.5 328.5q0 201 130 329t333 128t332 -128t129 -329q0 -200 -129.5 -328.5t-331.5 -128.5zM731 1102q0 -82 -74 -123
l97 -168h-176l-76 150h-10v-150h-164v430h245q71 0 114.5 -37.5t43.5 -101.5zM535 1112h-50v-53h50q26 0 26 26q0 27 -26 27z" />
    <glyph glyph-name="macron" unicode="&#xaf;" horiz-adv-x="923" 
d="M20 1274v301h883v-301h-883z" />
    <glyph glyph-name="degree" unicode="&#xb0;" horiz-adv-x="1015" 
d="M47 1092q0 175 125.5 273.5t337.5 98.5q210 0 334.5 -98.5t124.5 -273.5t-122 -278t-329 -103q-209 0 -340 104t-131 277zM623 1087q0 71 -34 106.5t-77 35.5q-46 0 -82.5 -35.5t-36.5 -106.5q0 -68 39 -102.5t86 -34.5q42 0 73.5 34t31.5 103z" />
    <glyph glyph-name="plusminus" unicode="&#xb1;" horiz-adv-x="1128" 
d="M346 1290h436v-174h305v-411h-305v-97h305v-411h-1046v411h305v97h-305v411h305v174z" />
    <glyph glyph-name="twosuperior" unicode="&#xb2;" horiz-adv-x="864" 
d="M82 1165q9 135 120 219t296 84q87 0 153 -20t102.5 -53.5t54 -70.5t17.5 -77q0 -73 -66 -127t-220 -112l-82 -31h348v-256h-707v250l277 143q96 48 96 105q0 16 -18 16q-34 0 -37 -70h-334z" />
    <glyph glyph-name="threesuperior" unicode="&#xb3;" horiz-adv-x="825" 
d="M41 1182q0 56 19.5 104t62 90.5t120.5 67t185 24.5q161 0 251.5 -59t90.5 -158q0 -127 -154 -151v-8q93 -21 132.5 -61t39.5 -105q0 -102 -94 -156.5t-258 -54.5q-215 0 -306.5 69.5t-102.5 202.5h352q0 -41 29 -41q26 0 26 43q0 28 -13 39.5t-42 11.5h-62v111h43
q29 0 41.5 12t12.5 41q0 35 -25 35q-29 0 -29 -57h-319z" />
    <glyph glyph-name="acute" unicode="&#xb4;" horiz-adv-x="571" 
d="M20 1536l531 225v-336l-531 -192v303z" />
    <glyph glyph-name="uni00B5" unicode="&#xb5;" horiz-adv-x="1538" 
d="M930 0v158q-50 -73 -133 -119.5t-191 -46.5v-545h-452v1708h452v-610q0 -73 44 -116.5t118 -43.5q75 0 118.5 43t43.5 117v610h454v-1155h-454z" />
    <glyph glyph-name="paragraph" unicode="&#xb6;" horiz-adv-x="1593" 
d="M535 1450h905v-1450h-363v1110h-119v-1110h-360v543h-63q-102 0 -185.5 25.5t-139.5 69t-93.5 102t-54.5 122.5t-17 133t16.5 133t54.5 123.5t93.5 103t139 69.5t186.5 26z" />
    <glyph glyph-name="periodcentered" unicode="&#xb7;" horiz-adv-x="714" 
d="M618 606q0 -96 -71 -159.5t-189 -63.5q-119 0 -190.5 63.5t-71.5 159.5q0 98 71.5 163t190.5 65q117 0 188.5 -65t71.5 -163z" />
    <glyph glyph-name="cedilla" unicode="&#xb8;" horiz-adv-x="702" 
d="M416 14v-69q41 0 83.5 -12.5t85.5 -39t70 -78t27 -120.5q0 -56 -19 -100.5t-49.5 -72t-71.5 -45.5t-82 -25t-85 -7h-355v231h308q25 0 39 9t14 24q0 31 -53 31h-174v274h262z" />
    <glyph glyph-name="onesuperior" unicode="&#xb9;" horiz-adv-x="583" 
d="M176 721v461h-135v260h471v-721h-336z" />
    <glyph glyph-name="ordmasculine" unicode="&#xba;" horiz-adv-x="962" 
d="M41 1083q0 162 119 265.5t321 103.5t321.5 -103.5t119.5 -265.5q0 -161 -120 -266.5t-321 -105.5t-320.5 105.5t-119.5 266.5zM580 1083q0 56 -27.5 84.5t-71.5 28.5t-71 -28.5t-27 -84.5t27 -85t71 -29t71.5 29t27.5 85z" />
    <glyph glyph-name="guillemotright" unicode="&#xbb;" horiz-adv-x="1265" 
d="M1038 246h-413l163 358l-163 359h413l156 -359zM516 246h-414l164 358l-164 359h414l156 -359z" />
    <glyph glyph-name="onequarter" unicode="&#xbc;" horiz-adv-x="1800" 
d="M225 0l795 1450h442l-792 -1450h-445zM1683 299h72v-180h-72v-119h-337v119h-416v172l289 428h464v-420zM1243 309h121v203zM227 721v461h-135v260h471v-721h-336z" />
    <glyph glyph-name="onehalf" unicode="&#xbd;" horiz-adv-x="1900" 
d="M225 0l815 1456h443l-813 -1456h-445zM227 721v461h-135v260h471v-721h-336zM1012 442q9 135 119.5 219t295.5 84q87 0 153.5 -20t103 -53.5t54 -70.5t17.5 -77q0 -73 -66.5 -127t-220.5 -112l-82 -31h349v-256h-707v250l277 143q96 48 96 105q0 16 -19 16q-33 0 -36 -70
h-334z" />
    <glyph glyph-name="threequarters" unicode="&#xbe;" horiz-adv-x="2097" 
d="M535 0l755 1456h445l-758 -1456h-442zM1995 299h71v-180h-71v-119h-336v119h-418v172l248 428h506v-420zM1556 299h121v254zM150 1182q0 56 19.5 104t62 90.5t120.5 67t185 24.5q161 0 251.5 -59t90.5 -158q0 -127 -154 -151v-8q93 -21 132.5 -61t39.5 -105
q0 -102 -94 -156.5t-258 -54.5q-111 0 -190 19t-124.5 56.5t-67.5 85t-28 111.5h352q0 -41 29 -41q27 0 27 43q0 28 -13.5 39.5t-42.5 11.5h-61v111h43q29 0 41 12t12 41q0 35 -24 35q-29 0 -29 -57h-319z" />
    <glyph glyph-name="questiondown" unicode="&#xbf;" horiz-adv-x="1101" 
d="M1061 51q4 -93 -26 -175t-92 -146.5t-165.5 -102t-236.5 -37.5q-227 0 -365.5 114.5t-138.5 332.5q0 181 121.5 290.5t318.5 114.5l12 146h402l12 -434h-172q-125 0 -189 -28t-61 -91q1 -36 21.5 -56t50.5 -20q41 0 60.5 26t19.5 66h428zM424 967q0 96 71 159.5t189 63.5
q119 0 190.5 -63.5t71.5 -159.5q0 -98 -71.5 -163t-190.5 -65q-117 0 -188.5 65t-71.5 163z" />
    <glyph glyph-name="Agrave" unicode="&#xc0;" horiz-adv-x="1583" 
d="M1104 0l-72 219h-483l-72 -219h-477l530 1450h525l528 -1450h-479zM524 1726v336l531 -225v-303zM922 561l-131 404l-132 -404h263z" />
    <glyph glyph-name="Aacute" unicode="&#xc1;" horiz-adv-x="1583" 
d="M1104 0l-72 219h-483l-72 -219h-477l530 1450h525l528 -1450h-479zM524 1837l531 225v-336l-531 -192v303zM922 561l-131 404l-132 -404h263z" />
    <glyph glyph-name="Acircumflex" unicode="&#xc2;" horiz-adv-x="1583" 
d="M1104 0l-72 219h-483l-72 -219h-477l530 1450h525l528 -1450h-479zM1130 1829v-295l-337 160l-340 -160v295l340 153zM922 561l-131 404l-132 -404h263z" />
    <glyph glyph-name="Atilde" unicode="&#xc3;" horiz-adv-x="1583" 
d="M1104 0l-72 219h-483l-72 -219h-477l530 1450h525l528 -1450h-479zM313 1534q33 190 116 275t214 85q57 0 113 -23.5t102.5 -47t79.5 -23.5q75 0 90 96h223q-33 -190 -115.5 -274t-213.5 -84q-57 0 -113 23t-102.5 46t-79.5 23q-75 0 -92 -96h-222zM922 561l-131 404
l-132 -404h263z" />
    <glyph glyph-name="Adieresis" unicode="&#xc4;" horiz-adv-x="1583" 
d="M1104 0l-72 219h-483l-72 -219h-477l530 1450h525l528 -1450h-479zM559 1571q-73 0 -123.5 50.5t-50.5 123.5q0 76 50 127t124 51q77 0 127.5 -50.5t50.5 -127.5q0 -74 -51 -124t-127 -50zM1020 1571q-74 0 -124 50.5t-50 123.5q0 76 50 127t124 51q76 0 127 -50.5
t51 -127.5q0 -74 -51 -124t-127 -50zM922 561l-131 404l-132 -404h263z" />
    <glyph glyph-name="Aring" unicode="&#xc5;" horiz-adv-x="1583" 
d="M1104 0l-72 219h-483l-72 -219h-477l530 1450h525l528 -1450h-479zM793 1690q40 0 67 27t27 69q0 43 -26.5 69.5t-67.5 26.5t-68 -26.5t-27 -69.5q0 -42 27.5 -69t67.5 -27zM793 2056q116 0 193 -73.5t77 -196.5t-77 -196.5t-193 -73.5t-193.5 73.5t-77.5 196.5
t77.5 196.5t193.5 73.5zM922 561l-131 404l-132 -404h263z" />
    <glyph glyph-name="AE" unicode="&#xc6;" horiz-adv-x="2019" 
d="M1004 1100l-261 -559h261v559zM1950 1090h-492v-175h430v-342h-430v-211h492v-362h-946v199h-418l-92 -199h-494l694 1450h1256v-360z" />
    <glyph glyph-name="Ccedilla" unicode="&#xc7;" horiz-adv-x="1542" 
d="M61 727q0 216 86 382.5t249.5 260.5t381.5 94q284 0 471 -155.5t232 -415.5h-480q-32 72 -93 111.5t-138 39.5q-115 0 -181.5 -86t-66.5 -231t66.5 -231t181.5 -86q77 0 138 39.5t93 111.5h480q-39 -226 -188.5 -376t-379.5 -185h11v-70q32 0 65.5 -7t70.5 -25t65 -45
t46.5 -71.5t18.5 -100.5t-19 -100.5t-49.5 -72t-71.5 -45.5t-82 -25t-85 -7h-355v231h308q25 0 39 9t14 24q0 31 -53 31h-174v272q-279 36 -440 234t-161 495z" />
    <glyph glyph-name="Egrave" unicode="&#xc8;" horiz-adv-x="1138" 
d="M1069 1450v-363h-512v-178h451v-342h-451v-205h512v-362h-967v1450h967zM309 1726v336l531 -225v-303z" />
    <glyph glyph-name="Eacute" unicode="&#xc9;" horiz-adv-x="1138" 
d="M1069 1450v-363h-512v-178h451v-342h-451v-205h512v-362h-967v1450h967zM309 1837l531 225v-336l-531 -192v303z" />
    <glyph glyph-name="Ecircumflex" unicode="&#xca;" horiz-adv-x="1138" 
d="M1069 1450v-363h-512v-178h451v-342h-451v-205h512v-362h-967v1450h967zM915 1829v-295l-337 160l-340 -160v295l340 153z" />
    <glyph glyph-name="Edieresis" unicode="&#xcb;" horiz-adv-x="1138" 
d="M1069 1450v-363h-512v-178h451v-342h-451v-205h512v-362h-967v1450h967zM344 1571q-74 0 -124 50.5t-50 123.5q0 76 50 127t124 51q76 0 127 -50.5t51 -127.5q0 -74 -51 -124t-127 -50zM805 1571q-73 0 -123.5 50.5t-50.5 123.5q0 76 50 127t124 51q77 0 127.5 -50.5
t50.5 -127.5q0 -74 -51 -124t-127 -50z" />
    <glyph glyph-name="Igrave" unicode="&#xcc;" horiz-adv-x="659" 
d="M102 0v1450h455v-1450h-455zM63 1726v336l531 -225v-303z" />
    <glyph glyph-name="Iacute" unicode="&#xcd;" horiz-adv-x="659" 
d="M102 0v1450h455v-1450h-455zM63 1837l531 225v-336l-531 -192v303z" />
    <glyph glyph-name="Icircumflex" unicode="&#xce;" horiz-adv-x="659" 
d="M102 0v1450h455v-1450h-455zM670 1829v-295l-338 160l-340 -160v295l340 153z" />
    <glyph glyph-name="Idieresis" unicode="&#xcf;" horiz-adv-x="659" 
d="M102 0v1450h455v-1450h-455zM98 1571q-74 0 -124 50.5t-50 123.5q0 76 50 127t124 51q76 0 127 -50.5t51 -127.5q0 -74 -51 -124t-127 -50zM559 1571q-73 0 -123.5 50.5t-50.5 123.5q0 76 50 127t124 51q77 0 127.5 -50.5t50.5 -127.5q0 -74 -51 -124t-127 -50z" />
    <glyph glyph-name="Eth" unicode="&#xd0;" horiz-adv-x="1521" 
d="M707 1450q171 0 312.5 -54t238 -149.5t149.5 -228.5t53 -289q0 -155 -53 -288.5t-149 -231t-238.5 -153.5t-312.5 -56h-605v549h-102v360h102v541h605zM557 406h109q154 0 243.5 84t89.5 239t-89.5 239.5t-243.5 84.5h-109v-144h266v-360h-266v-143z" />
    <glyph glyph-name="Ntilde" unicode="&#xd1;" horiz-adv-x="1595" 
d="M1038 1450h455v-1450h-455l-481 729v-729h-455v1450h455l481 -741v741zM317 1534q33 190 116 275t214 85q57 0 113 -23.5t102.5 -47t79.5 -23.5q75 0 90 96h223q-33 -190 -115.5 -274t-213.5 -84q-57 0 -113 23t-102.5 46t-79.5 23q-75 0 -92 -96h-222z" />
    <glyph glyph-name="Ograve" unicode="&#xd2;" horiz-adv-x="1613" 
d="M1552 731q0 -160 -58.5 -299.5t-159 -237t-237 -153t-288.5 -55.5q-153 0 -290.5 55.5t-238.5 153t-160 237t-59 299.5q0 213 101 384.5t271.5 265.5t375.5 94q154 0 290.5 -55.5t236.5 -152.5t158 -236.5t58 -299.5zM524 731q0 -148 74 -234.5t211 -86.5q134 0 208.5 87
t74.5 234q0 150 -74 237t-209 87q-137 0 -211 -87t-74 -237zM541 1726v336l530 -225v-303z" />
    <glyph glyph-name="Oacute" unicode="&#xd3;" horiz-adv-x="1613" 
d="M1552 731q0 -160 -58.5 -299.5t-159 -237t-237 -153t-288.5 -55.5q-153 0 -290.5 55.5t-238.5 153t-160 237t-59 299.5q0 213 101 384.5t271.5 265.5t375.5 94q154 0 290.5 -55.5t236.5 -152.5t158 -236.5t58 -299.5zM524 731q0 -148 74 -234.5t211 -86.5q134 0 208.5 87
t74.5 234q0 150 -74 237t-209 87q-137 0 -211 -87t-74 -237zM541 1837l530 225v-336l-530 -192v303z" />
    <glyph glyph-name="Ocircumflex" unicode="&#xd4;" horiz-adv-x="1613" 
d="M1552 731q0 -160 -58.5 -299.5t-159 -237t-237 -153t-288.5 -55.5q-153 0 -290.5 55.5t-238.5 153t-160 237t-59 299.5q0 213 101 384.5t271.5 265.5t375.5 94q154 0 290.5 -55.5t236.5 -152.5t158 -236.5t58 -299.5zM524 731q0 -148 74 -234.5t211 -86.5q134 0 208.5 87
t74.5 234q0 150 -74 237t-209 87q-137 0 -211 -87t-74 -237zM1147 1829v-295l-338 160l-340 -160v295l340 153z" />
    <glyph glyph-name="Otilde" unicode="&#xd5;" horiz-adv-x="1613" 
d="M1552 731q0 -160 -58.5 -299.5t-159 -237t-237 -153t-288.5 -55.5q-153 0 -290.5 55.5t-238.5 153t-160 237t-59 299.5q0 213 101 384.5t271.5 265.5t375.5 94q154 0 290.5 -55.5t236.5 -152.5t158 -236.5t58 -299.5zM524 731q0 -148 74 -234.5t211 -86.5q134 0 208.5 87
t74.5 234q0 150 -74 237t-209 87q-137 0 -211 -87t-74 -237zM330 1534q33 190 115.5 275t213.5 85q57 0 113 -23.5t102.5 -47t79.5 -23.5q75 0 90 96h224q-33 -190 -115.5 -274t-214.5 -84q-57 0 -113 23t-102.5 46t-79.5 23q-75 0 -92 -96h-221z" />
    <glyph glyph-name="Odieresis" unicode="&#xd6;" horiz-adv-x="1613" 
d="M1552 731q0 -160 -58.5 -299.5t-159 -237t-237 -153t-288.5 -55.5q-153 0 -290.5 55.5t-238.5 153t-160 237t-59 299.5q0 213 101 384.5t271.5 265.5t375.5 94q154 0 290.5 -55.5t236.5 -152.5t158 -236.5t58 -299.5zM524 731q0 -148 74 -234.5t211 -86.5q134 0 208.5 87
t74.5 234q0 150 -74 237t-209 87q-137 0 -211 -87t-74 -237zM575 1571q-73 0 -123.5 50.5t-50.5 123.5q0 76 50 127t124 51q77 0 128 -51t51 -127q0 -74 -51.5 -124t-127.5 -50zM1036 1571q-74 0 -124 50.5t-50 123.5q0 76 50 127t124 51q76 0 127 -50.5t51 -127.5
q0 -74 -51 -124t-127 -50z" />
    <glyph glyph-name="multiply" unicode="&#xd7;" horiz-adv-x="1189" 
d="M334 162l-293 291l254 258l-246 245l301 297l242 -241l239 241l295 -290l-241 -244l264 -262l-301 -297l-260 258z" />
    <glyph glyph-name="Oslash" unicode="&#xd8;" horiz-adv-x="1613" 
d="M1550 731q0 -160 -58.5 -299.5t-159 -237t-237 -153t-288.5 -55.5q-240 0 -430 129l-103 -113h-237l207 229q-185 208 -185 500q0 213 101 384.5t271.5 265.5t375.5 94q239 0 432 -129l100 112h236l-205 -229q180 -205 180 -498zM522 731q0 -89 27 -156l399 447
q-64 33 -141 33q-137 0 -211 -87t-74 -237zM807 410q134 0 208.5 87t74.5 234q0 89 -27 154l-397 -445q62 -30 141 -30z" />
    <glyph glyph-name="Ugrave" unicode="&#xd9;" horiz-adv-x="1472" 
d="M94 633v817h453v-817q0 -217 186 -217q98 0 145.5 59t47.5 158v817h452v-817q0 -126 -33.5 -231.5t-93 -181.5t-141.5 -129t-180 -79t-207 -26q-137 0 -251 41.5t-199 121t-132 203.5t-47 281zM469 1726v336l530 -225v-303z" />
    <glyph glyph-name="Uacute" unicode="&#xda;" horiz-adv-x="1472" 
d="M94 633v817h453v-817q0 -217 186 -217q98 0 145.5 59t47.5 158v817h452v-817q0 -126 -33.5 -231.5t-93 -181.5t-141.5 -129t-180 -79t-207 -26q-137 0 -251 41.5t-199 121t-132 203.5t-47 281zM469 1837l530 225v-336l-530 -192v303z" />
    <glyph glyph-name="Ucircumflex" unicode="&#xdb;" horiz-adv-x="1472" 
d="M94 633v817h453v-817q0 -217 186 -217q98 0 145.5 59t47.5 158v817h452v-817q0 -126 -33.5 -231.5t-93 -181.5t-141.5 -129t-180 -79t-207 -26q-137 0 -251 41.5t-199 121t-132 203.5t-47 281zM1075 1829v-295l-338 160l-340 -160v295l340 153z" />
    <glyph glyph-name="Udieresis" unicode="&#xdc;" horiz-adv-x="1472" 
d="M94 633v817h453v-817q0 -217 186 -217q98 0 145.5 59t47.5 158v817h452v-817q0 -126 -33.5 -231.5t-93 -181.5t-141.5 -129t-180 -79t-207 -26q-137 0 -251 41.5t-199 121t-132 203.5t-47 281zM504 1571q-74 0 -124 50.5t-50 123.5q0 76 50 127t124 51q76 0 127 -50.5
t51 -127.5q0 -74 -51 -124t-127 -50zM965 1571q-73 0 -123.5 50.5t-50.5 123.5q0 76 50 127t124 51q77 0 127.5 -50.5t50.5 -127.5q0 -74 -51 -124t-127 -50z" />
    <glyph glyph-name="Yacute" unicode="&#xdd;" horiz-adv-x="1495" 
d="M520 440l-520 1010h520l232 -514l231 514h512l-520 -1010v-440h-455v440zM481 1837l531 225v-336l-531 -192v303z" />
    <glyph glyph-name="Thorn" unicode="&#xde;" horiz-adv-x="1329" 
d="M557 594h129q141 0 141 133t-141 133h-129v-266zM1288 727q0 -98 -35.5 -182.5t-102.5 -149.5t-173.5 -102t-239.5 -37h-180v-256h-455v1450h451v-246h184q267 0 409 -130t142 -347z" />
    <glyph glyph-name="germandbls" unicode="&#xdf;" horiz-adv-x="1669" 
d="M90 0v1042q0 161 86 280.5t231.5 180t329.5 60.5q239 0 400 -112.5t161 -279.5q0 -54 -18.5 -105t-45 -87t-53 -66.5t-45 -55.5t-18.5 -42q0 -23 28.5 -43t135.5 -63q162 -65 229.5 -142t67.5 -200q0 -174 -131.5 -280.5t-341.5 -106.5q-220 0 -351.5 103.5t-168.5 301.5
h397q12 -41 43 -66.5t68 -25.5q28 0 44.5 14t16.5 39q0 28 -30 51.5t-126 59.5q-185 70 -258 130t-73 146q0 42 18.5 84.5t45.5 77.5t54 67.5t45.5 65t18.5 59.5q0 44 -39 72.5t-102 28.5q-75 0 -121.5 -45.5t-46.5 -120.5v-1022h-451z" />
    <glyph glyph-name="agrave" unicode="&#xe0;" horiz-adv-x="1392" 
d="M41 578q0 272 135.5 431.5t341.5 159.5q113 0 195.5 -46t124.5 -126v158h452v-1155h-452v158q-42 -80 -124.5 -126t-195.5 -46q-206 0 -341.5 160t-135.5 432zM838 578q0 92 -47.5 143t-120.5 51t-120.5 -51t-47.5 -143t47.5 -143.5t120.5 -51.5t120.5 51.5t47.5 143.5z
M442 1425v336l531 -225v-303z" />
    <glyph glyph-name="aacute" unicode="&#xe1;" horiz-adv-x="1392" 
d="M41 578q0 272 135.5 431.5t341.5 159.5q113 0 195.5 -46t124.5 -126v158h452v-1155h-452v158q-42 -80 -124.5 -126t-195.5 -46q-206 0 -341.5 160t-135.5 432zM838 578q0 92 -47.5 143t-120.5 51t-120.5 -51t-47.5 -143t47.5 -143.5t120.5 -51.5t120.5 51.5t47.5 143.5z
M442 1536l531 225v-336l-531 -192v303z" />
    <glyph glyph-name="acircumflex" unicode="&#xe2;" horiz-adv-x="1392" 
d="M41 578q0 272 135.5 431.5t341.5 159.5q113 0 195.5 -46t124.5 -126v158h452v-1155h-452v158q-42 -80 -124.5 -126t-195.5 -46q-206 0 -341.5 160t-135.5 432zM838 578q0 92 -47.5 143t-120.5 51t-120.5 -51t-47.5 -143t47.5 -143.5t120.5 -51.5t120.5 51.5t47.5 143.5z
M1049 1528v-295l-338 160l-340 -160v295l340 153z" />
    <glyph glyph-name="atilde" unicode="&#xe3;" horiz-adv-x="1392" 
d="M41 578q0 272 135.5 431.5t341.5 159.5q113 0 195.5 -46t124.5 -126v158h452v-1155h-452v158q-42 -80 -124.5 -126t-195.5 -46q-206 0 -341.5 160t-135.5 432zM838 578q0 92 -47.5 143t-120.5 51t-120.5 -51t-47.5 -143t47.5 -143.5t120.5 -51.5t120.5 51.5t47.5 143.5z
M231 1233q33 190 116 275t214 85q57 0 113 -23.5t102.5 -47t79.5 -23.5q75 0 90 96h223q-33 -190 -115.5 -274t-213.5 -84q-57 0 -113 23t-102.5 46t-79.5 23q-75 0 -92 -96h-222z" />
    <glyph glyph-name="adieresis" unicode="&#xe4;" horiz-adv-x="1392" 
d="M41 578q0 272 135.5 431.5t341.5 159.5q113 0 195.5 -46t124.5 -126v158h452v-1155h-452v158q-42 -80 -124.5 -126t-195.5 -46q-206 0 -341.5 160t-135.5 432zM838 578q0 92 -47.5 143t-120.5 51t-120.5 -51t-47.5 -143t47.5 -143.5t120.5 -51.5t120.5 51.5t47.5 143.5z
M477 1270q-73 0 -123.5 50t-50.5 124q0 76 50 127t124 51q77 0 127.5 -51t50.5 -127q0 -74 -51 -124t-127 -50zM938 1270q-74 0 -124 50t-50 124q0 76 50 127t124 51q76 0 127 -51t51 -127q0 -74 -51 -124t-127 -50z" />
    <glyph glyph-name="aring" unicode="&#xe5;" horiz-adv-x="1392" 
d="M41 578q0 272 135.5 431.5t341.5 159.5q113 0 195.5 -46t124.5 -126v158h452v-1155h-452v158q-42 -80 -124.5 -126t-195.5 -46q-206 0 -341.5 160t-135.5 432zM838 578q0 92 -47.5 143t-120.5 51t-120.5 -51t-47.5 -143t47.5 -143.5t120.5 -51.5t120.5 51.5t47.5 143.5z
M711 1755q116 0 193 -73.5t77 -196.5t-77 -197t-193 -74t-193.5 74t-77.5 197t77.5 196.5t193.5 73.5zM711 1389q40 0 67 27t27 69q0 43 -26.5 69.5t-67.5 26.5t-68 -26.5t-27 -69.5q0 -42 27.5 -69t67.5 -27z" />
    <glyph glyph-name="ae" unicode="&#xe6;" horiz-adv-x="2158" 
d="M1483 813q-148 0 -174 -129h348q0 64 -49.5 96.5t-124.5 32.5zM2093 416q-38 -190 -162.5 -310t-300.5 -120q-122 0 -209 45.5t-131 126.5v-158h-452v158q-42 -80 -124.5 -126t-195.5 -46q-206 0 -341.5 160t-135.5 432t135.5 431.5t341.5 159.5q113 0 195.5 -46
t124.5 -126v158h452v-158q42 82 129.5 127t210.5 45q217 0 352.5 -157t135.5 -424q0 -37 -11 -90h-800q10 -86 51.5 -121t109.5 -35q111 0 144 74h481zM502 578q0 -92 47.5 -143.5t120.5 -51.5t120.5 51.5t47.5 143.5t-47.5 143t-120.5 51t-120.5 -51t-47.5 -143z" />
    <glyph glyph-name="ccedilla" unicode="&#xe7;" horiz-adv-x="1247" 
d="M41 578q0 181 75.5 316t208.5 205t306 70q225 0 379.5 -127t195.5 -352h-481q-26 90 -104 90q-55 0 -87 -50.5t-32 -151.5t32 -152t87 -51q78 0 104 90h481q-35 -190 -151.5 -311.5t-290.5 -155.5v-68q32 0 65.5 -7t70.5 -25t65 -45t46.5 -71.5t18.5 -100.5t-19 -100.5
t-49.5 -72t-71.5 -45.5t-82 -25t-85 -7h-354v231h307q25 0 39 9t14 24q0 31 -53 31h-174v270q-211 37 -336 191t-125 391z" />
    <glyph glyph-name="egrave" unicode="&#xe8;" horiz-adv-x="1261" 
d="M631 813q-122 0 -142 -117h271q0 57 -37 87t-92 30zM1196 416q-37 -187 -193.5 -308.5t-371.5 -121.5q-263 0 -426.5 159.5t-163.5 432.5q0 181 75.5 316t208.5 205t306 70q263 0 426.5 -156.5t163.5 -424.5q0 -39 -7 -90h-729q8 -150 123 -150q76 0 107 68h481z
M362 1440v336l531 -226v-303z" />
    <glyph glyph-name="eacute" unicode="&#xe9;" horiz-adv-x="1261" 
d="M631 813q-122 0 -142 -117h271q0 57 -37 87t-92 30zM1196 416q-37 -187 -193.5 -308.5t-371.5 -121.5q-263 0 -426.5 159.5t-163.5 432.5q0 181 75.5 316t208.5 205t306 70q263 0 426.5 -156.5t163.5 -424.5q0 -39 -7 -90h-729q8 -150 123 -150q76 0 107 68h481z
M362 1550l531 226v-336l-531 -193v303z" />
    <glyph glyph-name="ecircumflex" unicode="&#xea;" horiz-adv-x="1261" 
d="M631 813q-122 0 -142 -117h271q0 57 -37 87t-92 30zM1196 416q-37 -187 -193.5 -308.5t-371.5 -121.5q-263 0 -426.5 159.5t-163.5 432.5q0 181 75.5 316t208.5 205t306 70q263 0 426.5 -156.5t163.5 -424.5q0 -39 -7 -90h-729q8 -150 123 -150q76 0 107 68h481z
M969 1542v-295l-338 160l-340 -160v295l340 154z" />
    <glyph glyph-name="edieresis" unicode="&#xeb;" horiz-adv-x="1261" 
d="M631 813q-122 0 -142 -117h271q0 57 -37 87t-92 30zM1196 416q-37 -187 -193.5 -308.5t-371.5 -121.5q-263 0 -426.5 159.5t-163.5 432.5q0 181 75.5 316t208.5 205t306 70q263 0 426.5 -156.5t163.5 -424.5q0 -39 -7 -90h-729q8 -150 123 -150q76 0 107 68h481z
M397 1284q-73 0 -123.5 50t-50.5 124q0 76 50 127t124 51q77 0 127.5 -51t50.5 -127q0 -74 -51 -124t-127 -50zM858 1284q-74 0 -124 50t-50 124q0 76 50 127t124 51q76 0 127 -51t51 -127q0 -74 -51 -124t-127 -50z" />
    <glyph glyph-name="igrave" unicode="&#xec;" horiz-adv-x="761" 
d="M154 0v1155h454v-1155h-454zM115 1425v336l530 -225v-303z" />
    <glyph glyph-name="iacute" unicode="&#xed;" horiz-adv-x="761" 
d="M154 0v1155h454v-1155h-454zM115 1536l530 225v-336l-530 -192v303z" />
    <glyph glyph-name="icircumflex" unicode="&#xee;" horiz-adv-x="761" 
d="M154 0v1155h454v-1155h-454zM721 1528v-295l-338 160l-340 -160v295l340 153z" />
    <glyph glyph-name="idieresis" unicode="&#xef;" horiz-adv-x="761" 
d="M154 0v1155h454v-1155h-454zM150 1270q-74 0 -124.5 50.5t-50.5 123.5q0 76 50.5 127t124.5 51q76 0 127 -51t51 -127q0 -74 -51 -124t-127 -50zM610 1270q-74 0 -124 50t-50 124q0 76 50 127t124 51q76 0 127 -51t51 -127q0 -74 -51 -124t-127 -50z" />
    <glyph glyph-name="eth" unicode="&#xf0;" horiz-adv-x="1316" 
d="M41 582q0 178 77 311.5t206.5 201.5t291.5 68q68 0 162 -16q-20 43 -61 106l-176 -49v148l90 26q-68 87 -125 138h395q7 -8 22.5 -25t22.5 -25l137 39v-147l-43 -12q108 -157 172 -337.5t64 -359.5q0 -157 -48 -284t-131 -208.5t-192 -125t-233 -43.5q-126 0 -240.5 42
t-201 117t-138 188t-51.5 247zM504 578q0 -52 16.5 -92t42.5 -62t53.5 -32.5t55.5 -10.5q60 0 100.5 47.5t40.5 149.5q0 100 -46 147t-103 47q-64 0 -112 -46.5t-48 -147.5z" />
    <glyph glyph-name="ntilde" unicode="&#xf1;" horiz-adv-x="1427" 
d="M557 612v-612h-455v1155h455v-176q54 83 143 133.5t211 50.5q198 0 310 -133.5t112 -359.5v-670h-452v612q0 83 -44 131t-118 48q-75 0 -118.5 -48t-43.5 -131zM307 1233q33 190 116 275t214 85q57 0 113 -23.5t102.5 -47t79.5 -23.5q75 0 90 96h223
q-33 -190 -115.5 -274t-214.5 -84q-57 0 -113 23t-102 46t-79 23q-76 0 -93 -96h-221z" />
    <glyph glyph-name="ograve" unicode="&#xf2;" horiz-adv-x="1302" 
d="M1262 578q0 -180 -80.5 -316t-218 -206t-312.5 -70q-130 0 -242 41t-193.5 116t-128 187t-46.5 248q0 180 80 315.5t217.5 205.5t312.5 70t312.5 -70t218 -205.5t80.5 -315.5zM502 578q0 -98 42 -148.5t107 -50.5q64 0 107 51t43 148t-42.5 147.5t-107.5 50.5
q-64 0 -106.5 -50t-42.5 -148zM434 1425v336l531 -225v-303z" />
    <glyph glyph-name="oacute" unicode="&#xf3;" horiz-adv-x="1302" 
d="M1262 578q0 -180 -80.5 -316t-218 -206t-312.5 -70q-130 0 -242 41t-193.5 116t-128 187t-46.5 248q0 180 80 315.5t217.5 205.5t312.5 70t312.5 -70t218 -205.5t80.5 -315.5zM502 578q0 -98 42 -148.5t107 -50.5q64 0 107 51t43 148t-42.5 147.5t-107.5 50.5
q-64 0 -106.5 -50t-42.5 -148zM434 1536l531 225v-336l-531 -192v303z" />
    <glyph glyph-name="ocircumflex" unicode="&#xf4;" horiz-adv-x="1302" 
d="M1262 578q0 -180 -80.5 -316t-218 -206t-312.5 -70q-130 0 -242 41t-193.5 116t-128 187t-46.5 248q0 180 80 315.5t217.5 205.5t312.5 70t312.5 -70t218 -205.5t80.5 -315.5zM502 578q0 -98 42 -148.5t107 -50.5q64 0 107 51t43 148t-42.5 147.5t-107.5 50.5
q-64 0 -106.5 -50t-42.5 -148zM1040 1528v-295l-338 160l-340 -160v295l340 153z" />
    <glyph glyph-name="otilde" unicode="&#xf5;" horiz-adv-x="1302" 
d="M1262 578q0 -180 -80.5 -316t-218 -206t-312.5 -70q-130 0 -242 41t-193.5 116t-128 187t-46.5 248q0 180 80 315.5t217.5 205.5t312.5 70t312.5 -70t218 -205.5t80.5 -315.5zM502 578q0 -98 42 -148.5t107 -50.5q64 0 107 51t43 148t-42.5 147.5t-107.5 50.5
q-64 0 -106.5 -50t-42.5 -148zM223 1233q33 190 116 275t214 85q57 0 113 -23.5t102.5 -47t79.5 -23.5q75 0 90 96h223q-33 -190 -115.5 -274t-214.5 -84q-57 0 -113 23t-102 46t-79 23q-76 0 -93 -96h-221z" />
    <glyph glyph-name="odieresis" unicode="&#xf6;" horiz-adv-x="1302" 
d="M1262 578q0 -180 -80.5 -316t-218 -206t-312.5 -70q-130 0 -242 41t-193.5 116t-128 187t-46.5 248q0 180 80 315.5t217.5 205.5t312.5 70t312.5 -70t218 -205.5t80.5 -315.5zM502 578q0 -98 42 -148.5t107 -50.5q64 0 107 51t43 148t-42.5 147.5t-107.5 50.5
q-64 0 -106.5 -50t-42.5 -148zM469 1270q-73 0 -123.5 50t-50.5 124q0 76 50 127t124 51q77 0 127.5 -51t50.5 -127q0 -74 -51 -124t-127 -50zM930 1270q-74 0 -124 50t-50 124q0 76 50 127t124 51q76 0 127 -51t51 -127q0 -74 -51 -124t-127 -50z" />
    <glyph glyph-name="divide" unicode="&#xf7;" horiz-adv-x="1128" 
d="M41 492v411h1046v-411h-1046zM834 207q0 -96 -71.5 -159.5t-189.5 -63.5q-119 0 -190.5 63.5t-71.5 159.5q0 98 71.5 162.5t190.5 64.5q118 0 189.5 -65t71.5 -162zM834 1180q0 -96 -71.5 -160t-189.5 -64q-119 0 -190.5 64t-71.5 160q0 98 71.5 162.5t190.5 64.5
q118 0 189.5 -65t71.5 -162z" />
    <glyph glyph-name="oslash" unicode="&#xf8;" horiz-adv-x="1271" 
d="M1245 578q0 -136 -46.5 -248t-128 -187t-193.5 -116t-242 -41q-201 0 -352 94l-72 -80h-211l164 178q-139 158 -139 400q0 180 80 315.5t217.5 205.5t312.5 70q201 0 352 -94l74 80h211l-166 -180q139 -158 139 -397zM485 578q0 -34 2 -46l211 230q-25 14 -63 14
q-65 0 -107.5 -50.5t-42.5 -147.5zM635 379q64 0 106.5 50.5t42.5 148.5q0 31 -2 43l-211 -228q28 -14 64 -14z" />
    <glyph glyph-name="ugrave" unicode="&#xf9;" horiz-adv-x="1427" 
d="M1325 1155v-1155h-455v176q-54 -83 -143 -133.5t-211 -50.5q-198 0 -310 133.5t-112 359.5v670h453v-612q0 -83 44 -130.5t118 -47.5q75 0 118 47.5t43 130.5v612h455zM446 1425v336l531 -225v-303z" />
    <glyph glyph-name="uacute" unicode="&#xfa;" horiz-adv-x="1427" 
d="M1325 1155v-1155h-455v176q-54 -83 -143 -133.5t-211 -50.5q-198 0 -310 133.5t-112 359.5v670h453v-612q0 -83 44 -130.5t118 -47.5q75 0 118 47.5t43 130.5v612h455zM446 1536l531 225v-336l-531 -192v303z" />
    <glyph glyph-name="ucircumflex" unicode="&#xfb;" horiz-adv-x="1427" 
d="M1325 1155v-1155h-455v176q-54 -83 -143 -133.5t-211 -50.5q-198 0 -310 133.5t-112 359.5v670h453v-612q0 -83 44 -130.5t118 -47.5q75 0 118 47.5t43 130.5v612h455zM1053 1528v-295l-338 160l-340 -160v295l340 153z" />
    <glyph glyph-name="udieresis" unicode="&#xfc;" horiz-adv-x="1427" 
d="M1325 1155v-1155h-455v176q-54 -83 -143 -133.5t-211 -50.5q-198 0 -310 133.5t-112 359.5v670h453v-612q0 -83 44 -130.5t118 -47.5q75 0 118 47.5t43 130.5v612h455zM481 1270q-73 0 -123.5 50t-50.5 124q0 76 50 127t124 51q77 0 127.5 -51t50.5 -127q0 -74 -51 -124
t-127 -50zM942 1270q-74 0 -124 50t-50 124q0 76 50 127t124 51q76 0 127 -51t51 -127q0 -74 -51 -124t-127 -50z" />
    <glyph glyph-name="yacute" unicode="&#xfd;" horiz-adv-x="1386" 
d="M702 569l203 586h502l-739 -1708h-498l291 610l-481 1098h505zM426 1536l530 225v-336l-530 -192v303z" />
    <glyph glyph-name="thorn" unicode="&#xfe;" horiz-adv-x="1392" 
d="M557 1053q55 60 123 85t162 25q102 0 195 -44.5t162.5 -121.5t111 -189t41.5 -239t-41 -237t-111 -184.5t-163 -117t-195 -42.5q-90 0 -158 34t-127 105v-680h-455v2069h455v-463zM891 569q0 100 -52 150.5t-114 50.5q-29 0 -56.5 -10t-53.5 -30.5t-42 -60t-16 -91.5
t16 -92t42 -61t54 -31.5t56 -10.5t55 9t53 28.5t42 58t16 90.5z" />
    <glyph glyph-name="ydieresis" unicode="&#xff;" horiz-adv-x="1386" 
d="M702 569l203 586h502l-739 -1708h-498l291 610l-481 1098h505zM461 1270q-73 0 -123.5 50t-50.5 124q0 76 50 127t124 51q77 0 127.5 -51t50.5 -127q0 -74 -51 -124t-127 -50zM922 1270q-74 0 -124 50t-50 124q0 76 50 127t124 51q76 0 127 -51t51 -127q0 -74 -51 -124
t-127 -50z" />
    <glyph glyph-name="Amacron" unicode="&#x100;" horiz-adv-x="1583" 
d="M1104 0l-72 219h-483l-72 -219h-477l530 1450h525l528 -1450h-479zM352 1575v301h883v-301h-883zM922 561l-131 404l-132 -404h263z" />
    <glyph glyph-name="amacron" unicode="&#x101;" horiz-adv-x="1392" 
d="M41 578q0 272 135.5 431.5t341.5 159.5q113 0 195.5 -46t124.5 -126v158h452v-1155h-452v158q-42 -80 -124.5 -126t-195.5 -46q-206 0 -341.5 160t-135.5 432zM838 578q0 92 -47.5 143t-120.5 51t-120.5 -51t-47.5 -143t47.5 -143.5t120.5 -51.5t120.5 51.5t47.5 143.5z
M270 1274v301h883v-301h-883z" />
    <glyph glyph-name="Abreve" unicode="&#x102;" horiz-adv-x="1583" 
d="M1104 0l-72 219h-483l-72 -219h-477l530 1450h525l528 -1450h-479zM1178 1946q0 -203 -107.5 -309.5t-277.5 -106.5t-277.5 106.5t-107.5 309.5v34h210q0 -63 39.5 -95t135.5 -32q95 0 134.5 32t39.5 95h211v-34zM922 561l-131 404l-132 -404h263z" />
    <glyph glyph-name="abreve" unicode="&#x103;" horiz-adv-x="1392" 
d="M41 578q0 272 135.5 431.5t341.5 159.5q113 0 195.5 -46t124.5 -126v158h452v-1155h-452v158q-42 -80 -124.5 -126t-195.5 -46q-206 0 -341.5 160t-135.5 432zM838 578q0 92 -47.5 143t-120.5 51t-120.5 -51t-47.5 -143t47.5 -143.5t120.5 -51.5t120.5 51.5t47.5 143.5z
M1096 1645q0 -203 -107.5 -309.5t-277.5 -106.5t-277.5 106.5t-107.5 309.5v34h211q0 -63 39.5 -95t134.5 -32t134.5 32t39.5 95h211v-34z" />
    <glyph glyph-name="Aogonek" unicode="&#x104;" horiz-adv-x="1583" 
d="M530 1450h525l528 -1450l-90 -39q-89 -38 -121.5 -69t-32.5 -60q0 -51 76 -51q70 0 168 33v-238q-112 -33 -233 -33q-154 0 -241 67.5t-87 190.5q0 117 82 199l-72 219h-483l-72 -219h-477zM922 561l-131 404l-132 -404h263z" />
    <glyph glyph-name="aogonek" unicode="&#x105;" horiz-adv-x="1392" 
d="M41 578q0 272 135.5 431.5t341.5 159.5q113 0 195.5 -46t124.5 -126v158h452v-1155l-88 -43q-84 -41 -119.5 -71.5t-35.5 -61.5q0 -19 18 -31t51 -12q76 0 174 33v-238q-112 -33 -231 -33q-155 0 -242.5 66t-87.5 180q0 122 109 215v154q-42 -80 -124.5 -126t-195.5 -46
q-206 0 -341.5 160t-135.5 432zM838 578q0 92 -47.5 143t-120.5 51t-120.5 -51t-47.5 -143t47.5 -143.5t120.5 -51.5t120.5 51.5t47.5 143.5z" />
    <glyph glyph-name="Cacute" unicode="&#x106;" horiz-adv-x="1542" 
d="M61 727q0 216 86 382.5t249.5 260.5t381.5 94q284 0 471 -155.5t232 -415.5h-480q-32 72 -93 111.5t-138 39.5q-115 0 -181.5 -86t-66.5 -231t66.5 -231t181.5 -86q77 0 138 39.5t93 111.5h480q-45 -260 -232 -415.5t-471 -155.5q-218 0 -381.5 94t-249.5 260.5
t-86 382.5zM504 1837l530 225v-336l-530 -192v303z" />
    <glyph glyph-name="cacute" unicode="&#x107;" horiz-adv-x="1247" 
d="M41 578q0 181 75.5 316t208.5 205t306 70q225 0 379.5 -127t195.5 -352h-481q-26 90 -104 90q-55 0 -87 -50.5t-32 -151.5t32 -152t87 -51q78 0 104 90h481q-41 -225 -195.5 -352t-379.5 -127q-263 0 -426.5 159.5t-163.5 432.5zM344 1536l530 225v-336l-530 -192v303z
" />
    <glyph glyph-name="Cdotaccent" unicode="&#x10a;" horiz-adv-x="1542" 
d="M61 727q0 216 86 382.5t249.5 260.5t381.5 94q284 0 471 -155.5t232 -415.5h-480q-32 72 -93 111.5t-138 39.5q-115 0 -181.5 -86t-66.5 -231t66.5 -231t181.5 -86q77 0 138 39.5t93 111.5h480q-45 -260 -232 -415.5t-471 -155.5q-218 0 -381.5 94t-249.5 260.5
t-86 382.5zM768 1571q-74 0 -124 50.5t-50 123.5q0 76 50 127t124 51q76 0 127 -50.5t51 -127.5q0 -74 -51 -124t-127 -50z" />
    <glyph glyph-name="cdotaccent" unicode="&#x10b;" horiz-adv-x="1247" 
d="M41 578q0 181 75.5 316t208.5 205t306 70q225 0 379.5 -127t195.5 -352h-481q-26 90 -104 90q-55 0 -87 -50.5t-32 -151.5t32 -152t87 -51q78 0 104 90h481q-41 -225 -195.5 -352t-379.5 -127q-263 0 -426.5 159.5t-163.5 432.5zM608 1270q-74 0 -124 50t-50 124
q0 76 50 127t124 51q76 0 127 -51t51 -127q0 -74 -51 -124t-127 -50z" />
    <glyph glyph-name="Ccaron" unicode="&#x10c;" horiz-adv-x="1542" 
d="M61 727q0 216 86 382.5t249.5 260.5t381.5 94q284 0 471 -155.5t232 -415.5h-480q-32 72 -93 111.5t-138 39.5q-115 0 -181.5 -86t-66.5 -231t66.5 -231t181.5 -86q77 0 138 39.5t93 111.5h480q-45 -260 -232 -415.5t-471 -155.5q-218 0 -381.5 94t-249.5 260.5
t-86 382.5zM772 1802l338 180v-294l-338 -154l-340 154v294z" />
    <glyph glyph-name="ccaron" unicode="&#x10d;" horiz-adv-x="1247" 
d="M41 578q0 181 75.5 316t208.5 205t306 70q225 0 379.5 -127t195.5 -352h-481q-26 90 -104 90q-55 0 -87 -50.5t-32 -151.5t32 -152t87 -51q78 0 104 90h481q-41 -225 -195.5 -352t-379.5 -127q-263 0 -426.5 159.5t-163.5 432.5zM612 1501l338 180v-295l-338 -153
l-340 153v295z" />
    <glyph glyph-name="Dcaron" unicode="&#x10e;" horiz-adv-x="1521" 
d="M707 1450q171 0 312.5 -54t238 -149.5t149.5 -228.5t53 -289q0 -155 -53 -288.5t-149 -231t-238.5 -153.5t-312.5 -56h-605v1450h605zM557 406h109q154 0 243.5 84t89.5 239t-89.5 239.5t-243.5 84.5h-109v-647zM735 1802l338 180v-294l-338 -154l-340 154v294z" />
    <glyph glyph-name="dcaron" unicode="&#x10f;" horiz-adv-x="1806" 
d="M1413 1516h320q53 -135 53 -275q0 -76 -20.5 -140.5t-61 -114.5t-106 -78.5t-150.5 -28.5v161q113 0 113 152v25h-148v299zM41 578q0 272 135.5 431.5t341.5 159.5q113 0 194 -46t124 -126v519h454v-1516h-454v158q-43 -80 -124 -126t-194 -46q-206 0 -341.5 160
t-135.5 432zM838 578q0 92 -47.5 143t-120.5 51t-120.5 -51t-47.5 -143t47.5 -143.5t120.5 -51.5t120.5 51.5t47.5 143.5z" />
    <glyph glyph-name="Dcroat" unicode="&#x110;" horiz-adv-x="1521" 
d="M707 1450q171 0 312.5 -54t238 -149.5t149.5 -228.5t53 -289q0 -155 -53 -288.5t-149 -231t-238.5 -153.5t-312.5 -56h-605v549h-102v360h102v541h605zM557 406h109q154 0 243.5 84t89.5 239t-89.5 239.5t-243.5 84.5h-109v-144h266v-360h-266v-143z" />
    <glyph glyph-name="dcroat" unicode="&#x111;" horiz-adv-x="1441" 
d="M41 578q0 272 135.5 431.5t341.5 159.5q113 0 194 -46t124 -126v215h-121v197h121v107h454v-107h131v-197h-131v-1212h-454v158q-43 -80 -124 -126t-194 -46q-206 0 -341.5 160t-135.5 432zM838 578q0 92 -47.5 143t-120.5 51t-120.5 -51t-47.5 -143t47.5 -143.5
t120.5 -51.5t120.5 51.5t47.5 143.5z" />
    <glyph glyph-name="Emacron" unicode="&#x112;" horiz-adv-x="1138" 
d="M1069 1450v-363h-512v-178h451v-342h-451v-205h512v-362h-967v1450h967zM137 1575v301h883v-301h-883z" />
    <glyph glyph-name="emacron" unicode="&#x113;" horiz-adv-x="1261" 
d="M631 813q-122 0 -142 -117h271q0 57 -37 87t-92 30zM1196 416q-37 -187 -193.5 -308.5t-371.5 -121.5q-263 0 -426.5 159.5t-163.5 432.5q0 181 75.5 316t208.5 205t306 70q263 0 426.5 -156.5t163.5 -424.5q0 -39 -7 -90h-729q8 -150 123 -150q76 0 107 68h481z
M190 1288v301h883v-301h-883z" />
    <glyph glyph-name="Ebreve" unicode="&#x114;" horiz-adv-x="1138" 
d="M1069 1450v-363h-512v-178h451v-342h-451v-205h512v-362h-967v1450h967zM963 1946q0 -203 -107.5 -309.5t-277.5 -106.5t-277.5 106.5t-107.5 309.5v34h210q0 -63 39.5 -95t135.5 -32q95 0 134.5 32t39.5 95h211v-34z" />
    <glyph glyph-name="ebreve" unicode="&#x115;" horiz-adv-x="1261" 
d="M631 813q-122 0 -142 -117h271q0 57 -37 87t-92 30zM1196 416q-37 -187 -193.5 -308.5t-371.5 -121.5q-263 0 -426.5 159.5t-163.5 432.5q0 181 75.5 316t208.5 205t306 70q263 0 426.5 -156.5t163.5 -424.5q0 -39 -7 -90h-729q8 -150 123 -150q76 0 107 68h481z
M1016 1659q0 -203 -107.5 -309.5t-277.5 -106.5t-277.5 106.5t-107.5 309.5v35h211q0 -63 39.5 -95t134.5 -32t134.5 32t39.5 95h211v-35z" />
    <glyph glyph-name="Edotaccent" unicode="&#x116;" horiz-adv-x="1138" 
d="M1069 1450v-363h-512v-178h451v-342h-451v-205h512v-362h-967v1450h967zM573 1571q-73 0 -123.5 50.5t-50.5 123.5q0 76 50 127t124 51q77 0 128 -51t51 -127q0 -74 -51.5 -124t-127.5 -50z" />
    <glyph glyph-name="edotaccent" unicode="&#x117;" horiz-adv-x="1261" 
d="M631 813q-122 0 -142 -117h271q0 57 -37 87t-92 30zM1196 416q-37 -187 -193.5 -308.5t-371.5 -121.5q-263 0 -426.5 159.5t-163.5 432.5q0 181 75.5 316t208.5 205t306 70q263 0 426.5 -156.5t163.5 -424.5q0 -39 -7 -90h-729q8 -150 123 -150q76 0 107 68h481z
M627 1284q-73 0 -123.5 50t-50.5 124q0 76 50 127t124 51q77 0 127.5 -51t50.5 -127q0 -74 -51 -124t-127 -50z" />
    <glyph glyph-name="Eogonek" unicode="&#x118;" horiz-adv-x="1138" 
d="M1069 1450v-363h-512v-178h451v-342h-451v-205h512v-362l-88 -43q-85 -41 -120.5 -71.5t-35.5 -61.5q0 -19 18.5 -31t51.5 -12q76 0 174 33v-238q-112 -33 -231 -33q-155 0 -242.5 66t-87.5 180q0 123 104 211h-510v1450h967z" />
    <glyph glyph-name="eogonek" unicode="&#x119;" horiz-adv-x="1261" 
d="M631 813q-122 0 -142 -117h271q0 57 -37 87t-92 30zM825 -408q-109 -32 -231 -32q-155 0 -242.5 65.5t-87.5 179.5q0 129 121 224q-161 63 -252.5 205.5t-91.5 343.5q0 181 75.5 316t208.5 205t306 70q263 0 426.5 -156.5t163.5 -424.5q0 -39 -7 -90h-729
q8 -150 123 -150q76 0 107 68h481q-29 -143 -129.5 -250.5t-247.5 -153.5l-82 -39q-84 -41 -119.5 -71.5t-35.5 -61.5q0 -19 18 -31t51 -12q76 0 174 33v-238z" />
    <glyph glyph-name="Ecaron" unicode="&#x11a;" horiz-adv-x="1138" 
d="M1069 1450v-363h-512v-178h451v-342h-451v-205h512v-362h-967v1450h967zM578 1802l337 180v-294l-337 -154l-340 154v294z" />
    <glyph glyph-name="ecaron" unicode="&#x11b;" horiz-adv-x="1261" 
d="M631 813q-122 0 -142 -117h271q0 57 -37 87t-92 30zM1196 416q-37 -187 -193.5 -308.5t-371.5 -121.5q-263 0 -426.5 159.5t-163.5 432.5q0 181 75.5 316t208.5 205t306 70q263 0 426.5 -156.5t163.5 -424.5q0 -39 -7 -90h-729q8 -150 123 -150q76 0 107 68h481z
M631 1516l338 180v-295l-338 -154l-340 154v295z" />
    <glyph glyph-name="Gbreve" unicode="&#x11e;" horiz-adv-x="1540" 
d="M795 1464q285 0 463.5 -137.5t211.5 -372.5h-479q-57 90 -194 90q-130 0 -202.5 -85t-72.5 -232q0 -170 80 -254t246 -84q158 0 254 127h-363v322h740v-455q-33 -57 -73 -108t-101.5 -105t-132.5 -92.5t-168 -63t-205 -24.5q-225 0 -393 94t-256.5 260.5t-88.5 382.5
q0 161 51 297t145 233.5t232 152t306 54.5zM1157 1946q0 -203 -107.5 -309.5t-277.5 -106.5t-277.5 106.5t-107.5 309.5v34h211q0 -63 39.5 -95t134.5 -32t134.5 32t39.5 95h211v-34z" />
    <glyph glyph-name="gbreve" unicode="&#x11f;" horiz-adv-x="1392" 
d="M41 578q0 272 135.5 431.5t341.5 159.5q113 0 195.5 -46t124.5 -126v158h452v-1135q0 -94 -19.5 -178t-64 -160t-111.5 -130.5t-168 -86.5t-227 -32q-278 0 -440 129.5t-186 353.5h446q18 -90 148 -90q80 0 125 41t45 153v138q-42 -80 -124.5 -126t-195.5 -46
q-206 0 -341.5 160t-135.5 432zM838 578q0 92 -47.5 143t-120.5 51t-120.5 -51t-47.5 -143t47.5 -143.5t120.5 -51.5t120.5 51.5t47.5 143.5zM1096 1645q0 -203 -107.5 -309.5t-277.5 -106.5t-277.5 106.5t-107.5 309.5v34h211q0 -63 39.5 -95t134.5 -32t134.5 32t39.5 95
h211v-34z" />
    <glyph glyph-name="Gdotaccent" unicode="&#x120;" horiz-adv-x="1540" 
d="M795 1464q285 0 463.5 -137.5t211.5 -372.5h-479q-57 90 -194 90q-130 0 -202.5 -85t-72.5 -232q0 -170 80 -254t246 -84q158 0 254 127h-363v322h740v-455q-33 -57 -73 -108t-101.5 -105t-132.5 -92.5t-168 -63t-205 -24.5q-225 0 -393 94t-256.5 260.5t-88.5 382.5
q0 161 51 297t145 233.5t232 152t306 54.5zM768 1571q-74 0 -124 50.5t-50 123.5q0 76 50 127t124 51q76 0 127 -50.5t51 -127.5q0 -74 -51 -124t-127 -50z" />
    <glyph glyph-name="gdotaccent" unicode="&#x121;" horiz-adv-x="1392" 
d="M41 578q0 272 135.5 431.5t341.5 159.5q113 0 195.5 -46t124.5 -126v158h452v-1135q0 -94 -19.5 -178t-64 -160t-111.5 -130.5t-168 -86.5t-227 -32q-278 0 -440 129.5t-186 353.5h446q18 -90 148 -90q80 0 125 41t45 153v138q-42 -80 -124.5 -126t-195.5 -46
q-206 0 -341.5 160t-135.5 432zM838 578q0 92 -47.5 143t-120.5 51t-120.5 -51t-47.5 -143t47.5 -143.5t120.5 -51.5t120.5 51.5t47.5 143.5zM707 1270q-74 0 -124.5 50.5t-50.5 123.5q0 76 50.5 127t124.5 51q77 0 127.5 -51t50.5 -127q0 -74 -51 -124t-127 -50z" />
    <glyph glyph-name="uni0122" unicode="&#x122;" horiz-adv-x="1548" 
d="M610 -72h320q53 -138 53 -276q0 -158 -86 -259.5t-252 -101.5v160q113 0 113 154v22h-148v301zM795 1464q285 0 463.5 -137.5t211.5 -372.5h-479q-57 90 -194 90q-130 0 -202.5 -85t-72.5 -232q0 -170 80 -254t246 -84q158 0 254 127h-363v322h740v-455q-33 -57 -73 -108
t-101.5 -105t-132.5 -92.5t-168 -63t-205 -24.5q-225 0 -393 94t-256.5 260.5t-88.5 382.5q0 161 51 297t145 233.5t232 152t306 54.5z" />
    <glyph glyph-name="uni0123" unicode="&#x123;" horiz-adv-x="1392" 
d="M897 1227h-319q-52 135 -52 276q0 157 85.5 259t250.5 102v-160q-112 0 -112 -154v-22h147v-301zM41 578q0 272 135.5 431.5t341.5 159.5q113 0 195.5 -46t124.5 -126v158h452v-1135q0 -94 -19.5 -178t-64 -160t-111.5 -130.5t-168 -86.5t-227 -32q-278 0 -440 129.5
t-186 353.5h446q18 -90 148 -90q80 0 125 41t45 153v138q-42 -80 -124.5 -126t-195.5 -46q-206 0 -341.5 160t-135.5 432zM838 578q0 92 -47.5 143t-120.5 51t-120.5 -51t-47.5 -143t47.5 -143.5t120.5 -51.5t120.5 51.5t47.5 143.5z" />
    <glyph glyph-name="Itilde" unicode="&#x128;" horiz-adv-x="659" 
d="M102 0v1450h455v-1450h-455zM-147 1534q33 190 115.5 275t213.5 85q57 0 113 -23.5t102.5 -47t79.5 -23.5q75 0 90 96h224q-33 -190 -115.5 -274t-214.5 -84q-57 0 -113 23t-102.5 46t-79.5 23q-75 0 -92 -96h-221z" />
    <glyph glyph-name="itilde" unicode="&#x129;" horiz-adv-x="761" 
d="M154 0v1155h454v-1155h-454zM-96 1233q33 190 115.5 275t213.5 85q57 0 113 -23.5t102.5 -47t79.5 -23.5q75 0 90 96h224q-33 -190 -115.5 -274t-214.5 -84q-57 0 -113 23t-102.5 46t-79.5 23q-75 0 -92 -96h-221z" />
    <glyph glyph-name="Imacron" unicode="&#x12a;" horiz-adv-x="659" 
d="M102 0v1450h455v-1450h-455zM-109 1575v301h883v-301h-883z" />
    <glyph glyph-name="imacron" unicode="&#x12b;" horiz-adv-x="761" 
d="M154 0v1155h454v-1155h-454zM-57 1274v301h882v-301h-882z" />
    <glyph glyph-name="uni012C" unicode="&#x12c;" horiz-adv-x="659" 
d="M102 0v1450h455v-1450h-455zM717 1946q0 -203 -107.5 -309.5t-277.5 -106.5t-277.5 106.5t-107.5 309.5v34h211q0 -63 39.5 -95t134.5 -32t134.5 32t39.5 95h211v-34z" />
    <glyph glyph-name="uni012D" unicode="&#x12d;" horiz-adv-x="761" 
d="M154 0v1155h454v-1155h-454zM768 1645q0 -203 -107.5 -309.5t-277.5 -106.5t-277.5 106.5t-107.5 309.5v34h211q0 -63 39.5 -95t134.5 -32t134.5 32t39.5 95h211v-34z" />
    <glyph glyph-name="Iogonek" unicode="&#x12e;" horiz-adv-x="659" 
d="M557 -424q-112 -33 -231 -33q-155 0 -242.5 66t-87.5 180q0 123 106 213v1448h455v-1450l-88 -43q-85 -41 -120.5 -71.5t-35.5 -61.5q0 -19 18.5 -31t51.5 -12q76 0 174 33v-238z" />
    <glyph glyph-name="iogonek" unicode="&#x12f;" horiz-adv-x="659" 
d="M102 0v1155h455v-1155v-2l-88 -43q-85 -41 -120.5 -71.5t-35.5 -61.5q0 -19 18.5 -31t51.5 -12q76 0 174 33v-238q-112 -33 -231 -33q-155 0 -242.5 66t-87.5 180q0 123 106 213zM332 1247q-119 0 -190.5 63.5t-71.5 159.5q0 98 71.5 163t190.5 65q117 0 188.5 -65
t71.5 -163q0 -96 -71 -159.5t-189 -63.5z" />
    <glyph glyph-name="Idotaccent" unicode="&#x130;" horiz-adv-x="659" 
d="M102 0v1450h455v-1450h-455zM328 1571q-74 0 -124 50.5t-50 123.5q0 76 50 127t124 51q76 0 127 -50.5t51 -127.5q0 -74 -51 -124t-127 -50z" />
    <glyph glyph-name="dotlessi" unicode="&#x131;" horiz-adv-x="761" 
d="M154 0v1155h454v-1155h-454z" />
    <glyph glyph-name="uni0136" unicode="&#x136;" horiz-adv-x="1634" 
d="M653 -72h320q51 -132 51 -276q0 -75 -20.5 -139.5t-60.5 -114.5t-105.5 -78.5t-149.5 -28.5v160q113 0 113 154v22h-148v301zM979 0l-422 629v-629h-455v1450h455v-610l416 610h514l-500 -694l533 -756h-541z" />
    <glyph glyph-name="uni0137" unicode="&#x137;" horiz-adv-x="1384" 
d="M537 -72h319q51 -132 51 -276q0 -75 -20.5 -139.5t-60.5 -114.5t-105.5 -78.5t-149.5 -28.5v160q113 0 113 154v22h-147v301zM102 0v1516h455v-793l289 432h528l-432 -582l442 -573h-542l-285 461v-461h-455z" />
    <glyph glyph-name="Lacute" unicode="&#x139;" horiz-adv-x="1036" 
d="M102 1450h455v-1106h438v-344h-893v1450zM205 1837l530 225v-336l-530 -192v303z" />
    <glyph glyph-name="lacute" unicode="&#x13a;" horiz-adv-x="659" 
d="M102 0v1516h455v-1516h-455zM63 1896l531 226v-336l-531 -193v303z" />
    <glyph glyph-name="uni013B" unicode="&#x13b;" horiz-adv-x="1046" 
d="M430 -72h320q53 -138 53 -276q0 -158 -86 -259.5t-252 -101.5v160q113 0 113 154v22h-148v301zM102 1450h455v-1106h438v-344h-893v1450z" />
    <glyph glyph-name="uni013C" unicode="&#x13c;" horiz-adv-x="659" 
d="M178 -72h320q51 -132 51 -276q0 -75 -20.5 -139.5t-60.5 -114.5t-105.5 -78.5t-149.5 -28.5v160q113 0 113 154v22h-148v301zM102 0v1516h455v-1516h-455z" />
    <glyph glyph-name="Lcaron" unicode="&#x13d;" horiz-adv-x="1181" 
d="M756 1450h319q51 -130 51 -274q0 -159 -85 -261t-250 -102v162q112 0 112 151v25h-147v299zM102 1450h455v-1106h438v-344h-893v1450z" />
    <glyph glyph-name="lcaron" unicode="&#x13e;" horiz-adv-x="1056" 
d="M666 1516h319q51 -130 51 -275q0 -159 -85.5 -260.5t-250.5 -101.5v161q113 0 113 152v25h-147v299zM102 0v1516h455v-1516h-455z" />
    <glyph glyph-name="Ldot" unicode="&#x13f;" horiz-adv-x="1036" 
d="M102 1450h455v-1106h438v-344h-893v1450zM469 1571q-73 0 -123.5 50.5t-50.5 123.5q0 76 50 127t124 51q77 0 127.5 -50.5t50.5 -127.5q0 -74 -51 -124t-127 -50z" />
    <glyph glyph-name="ldot" unicode="&#x140;" horiz-adv-x="659" 
d="M328 1630q-74 0 -124 50t-50 124q0 76 50 127t124 51q76 0 127 -51t51 -127q0 -74 -51 -124t-127 -50zM102 0v1516h455v-1516h-455z" />
    <glyph glyph-name="Lslash" unicode="&#x141;" horiz-adv-x="1067" 
d="M133 1450h455v-399l153 43v-402l-153 -43v-305h438v-344h-893v524l-113 -30v401l113 31v524z" />
    <glyph glyph-name="lslash" unicode="&#x142;" horiz-adv-x="761" 
d="M154 0v530l-134 -36v401l134 37v584h454v-459l133 37v-402l-133 -37v-655h-454z" />
    <glyph glyph-name="Nacute" unicode="&#x143;" horiz-adv-x="1595" 
d="M1038 1450h455v-1450h-455l-481 729v-729h-455v1450h455l481 -741v741zM528 1837l531 225v-336l-531 -192v303z" />
    <glyph glyph-name="nacute" unicode="&#x144;" horiz-adv-x="1427" 
d="M518 1536l531 225v-336l-531 -192v303zM881 0v612q0 83 -44 131t-118 48q-75 0 -118.5 -48t-43.5 -131v-612h-455v1155h455v-176q54 83 143 133.5t211 50.5q198 0 310 -133.5t112 -359.5v-670h-452z" />
    <glyph glyph-name="uni0145" unicode="&#x145;" horiz-adv-x="1697" 
d="M684 -72h320q53 -138 53 -276q0 -158 -86 -259.5t-252 -101.5v160q112 0 112 154v22h-147v301zM1038 1450h455v-1450h-455l-481 729v-729h-455v1450h455l481 -741v741z" />
    <glyph glyph-name="uni0146" unicode="&#x146;" horiz-adv-x="1427" 
d="M600 -72h320q51 -132 51 -276q0 -75 -20.5 -139.5t-60.5 -114.5t-105.5 -78.5t-149.5 -28.5v160q113 0 113 154v22h-148v301zM881 0v612q0 83 -44 131t-118 48q-75 0 -118.5 -48t-43.5 -131v-612h-455v1155h455v-176q54 83 143 133.5t211 50.5q198 0 310 -133.5
t112 -359.5v-670h-452z" />
    <glyph glyph-name="Ncaron" unicode="&#x147;" horiz-adv-x="1595" 
d="M1038 1450h455v-1450h-455l-481 729v-729h-455v1450h455l481 -741v741zM797 1802l338 180v-294l-338 -154l-340 154v294z" />
    <glyph glyph-name="ncaron" unicode="&#x148;" horiz-adv-x="1427" 
d="M881 0v612q0 83 -44 131t-118 48q-75 0 -118.5 -48t-43.5 -131v-612h-455v1155h455v-176q54 83 143 133.5t211 50.5q198 0 310 -133.5t112 -359.5v-670h-452zM786 1501l338 180v-295l-338 -153l-340 153v295z" />
    <glyph glyph-name="Omacron" unicode="&#x14c;" horiz-adv-x="1613" 
d="M1552 731q0 -160 -58.5 -299.5t-159 -237t-237 -153t-288.5 -55.5q-153 0 -290.5 55.5t-238.5 153t-160 237t-59 299.5q0 213 101 384.5t271.5 265.5t375.5 94q154 0 290.5 -55.5t236.5 -152.5t158 -236.5t58 -299.5zM524 731q0 -148 74 -234.5t211 -86.5q134 0 208.5 87
t74.5 234q0 150 -74 237t-209 87q-137 0 -211 -87t-74 -237zM369 1575v301h882v-301h-882z" />
    <glyph glyph-name="omacron" unicode="&#x14d;" horiz-adv-x="1302" 
d="M1262 578q0 -180 -80.5 -316t-218 -206t-312.5 -70q-130 0 -242 41t-193.5 116t-128 187t-46.5 248q0 180 80 315.5t217.5 205.5t312.5 70t312.5 -70t218 -205.5t80.5 -315.5zM502 578q0 -98 42 -148.5t107 -50.5q64 0 107 51t43 148t-42.5 147.5t-107.5 50.5
q-64 0 -106.5 -50t-42.5 -148zM262 1274v301h883v-301h-883z" />
    <glyph glyph-name="uni014E" unicode="&#x14e;" horiz-adv-x="1613" 
d="M1552 731q0 -160 -58.5 -299.5t-159 -237t-237 -153t-288.5 -55.5q-153 0 -290.5 55.5t-238.5 153t-160 237t-59 299.5q0 213 101 384.5t271.5 265.5t375.5 94q154 0 290.5 -55.5t236.5 -152.5t158 -236.5t58 -299.5zM524 731q0 -148 74 -234.5t211 -86.5q134 0 208.5 87
t74.5 234q0 150 -74 237t-209 87q-137 0 -211 -87t-74 -237zM1194 1946q0 -203 -107.5 -309.5t-277.5 -106.5t-277.5 106.5t-107.5 309.5v34h211q0 -63 39.5 -95t134.5 -32t134.5 32t39.5 95h211v-34z" />
    <glyph glyph-name="uni014F" unicode="&#x14f;" horiz-adv-x="1302" 
d="M1262 578q0 -180 -80.5 -316t-218 -206t-312.5 -70q-130 0 -242 41t-193.5 116t-128 187t-46.5 248q0 180 80 315.5t217.5 205.5t312.5 70t312.5 -70t218 -205.5t80.5 -315.5zM502 578q0 -98 42 -148.5t107 -50.5q64 0 107 51t43 148t-42.5 147.5t-107.5 50.5
q-64 0 -106.5 -50t-42.5 -148zM1087 1645q0 -203 -107.5 -309.5t-277.5 -106.5t-277.5 106.5t-107.5 309.5v34h211q0 -63 39.5 -95t134.5 -32q96 0 135.5 32t39.5 95h210v-34z" />
    <glyph glyph-name="Ohungarumlaut" unicode="&#x150;" horiz-adv-x="1613" 
d="M1552 731q0 -160 -58.5 -299.5t-159 -237t-237 -153t-288.5 -55.5q-153 0 -290.5 55.5t-238.5 153t-160 237t-59 299.5q0 213 101 384.5t271.5 265.5t375.5 94q154 0 290.5 -55.5t236.5 -152.5t158 -236.5t58 -299.5zM524 731q0 -148 74 -234.5t211 -86.5q134 0 208.5 87
t74.5 234q0 150 -74 237t-209 87q-137 0 -211 -87t-74 -237zM580 2032h344l-236 -500h-272zM1083 2032h344l-282 -500h-273z" />
    <glyph glyph-name="ohungarumlaut" unicode="&#x151;" horiz-adv-x="1302" 
d="M1262 578q0 -180 -80.5 -316t-218 -206t-312.5 -70q-130 0 -242 41t-193.5 116t-128 187t-46.5 248q0 180 80 315.5t217.5 205.5t312.5 70t312.5 -70t218 -205.5t80.5 -315.5zM502 578q0 -98 42 -148.5t107 -50.5q64 0 107 51t43 148t-42.5 147.5t-107.5 50.5
q-64 0 -106.5 -50t-42.5 -148zM473 1731h344l-235 -500h-273zM977 1731h344l-283 -500h-272z" />
    <glyph glyph-name="OE" unicode="&#x152;" horiz-adv-x="2148" 
d="M2079 1090h-512v-181h450v-342h-450v-205h512v-362h-967v76q-119 -90 -338 -101q-205 0 -367.5 95t-254 266.5t-91.5 388.5t91.5 388.5t254 266.5t367.5 95q204 0 338 -101v76h967v-360zM809 1055q-137 0 -211 -88.5t-74 -241.5t74 -241.5t211 -88.5q135 0 209 88.5
t74 241.5t-74 241.5t-209 88.5z" />
    <glyph glyph-name="oe" unicode="&#x153;" horiz-adv-x="2093" 
d="M801 578q0 97 -42.5 147.5t-107.5 50.5q-64 0 -106.5 -50t-42.5 -148t42 -148.5t107 -50.5q64 0 107 51t43 148zM1409 813q-125 0 -143 -129h272q0 65 -36.5 97t-92.5 32zM41 578q0 180 80 315.5t217.5 205.5t312.5 70q226 0 383 -114q154 114 375 114
q263 0 426.5 -156.5t163.5 -424.5q0 -42 -10 -90h-727q6 -85 38.5 -117.5t85.5 -32.5q76 0 107 68h481q-37 -187 -193.5 -308.5t-371.5 -121.5q-221 0 -375 114q-157 -114 -383 -114q-130 0 -242 41t-193.5 116t-128 187t-46.5 248z" />
    <glyph glyph-name="Racute" unicode="&#x154;" horiz-adv-x="1372" 
d="M868 946q0 57 -34 90t-97 33h-180v-246h180q131 0 131 123zM102 1450h676q133 0 239.5 -36.5t173.5 -101.5t102.5 -150.5t35.5 -186.5q0 -146 -80.5 -258t-232.5 -162l315 -555h-500l-272 520h-2v-520h-455v1450zM397 1837l531 225v-336l-531 -192v303z" />
    <glyph glyph-name="racute" unicode="&#x155;" horiz-adv-x="956" 
d="M557 473v-473h-455v1155h455v-213q70 100 170 160.5t209 60.5v-485h-129q-129 0 -189.5 -45.5t-60.5 -159.5zM295 1536l530 225v-336l-530 -192v303z" />
    <glyph glyph-name="uni0156" unicode="&#x156;" horiz-adv-x="1435" 
d="M553 -72h319q54 -140 54 -276q0 -158 -86 -259.5t-252 -101.5v160q112 0 112 154v22h-147v301zM557 0h-455v1450h676q133 0 239.5 -36.5t173.5 -101.5t102.5 -150.5t35.5 -186.5q0 -146 -80.5 -258t-232.5 -162l315 -555h-500l-272 520h-2v-520zM868 946q0 57 -34 90
t-97 33h-180v-246h180q131 0 131 123z" />
    <glyph glyph-name="uni0157" unicode="&#x157;" horiz-adv-x="956" 
d="M164 -72h319q52 -135 52 -276q0 -75 -20.5 -139.5t-60.5 -114.5t-105.5 -78.5t-149.5 -28.5v160q112 0 112 154v22h-147v301zM557 473v-473h-455v1155h455v-213q70 100 170 160.5t209 60.5v-485h-129q-129 0 -189.5 -45.5t-60.5 -159.5z" />
    <glyph glyph-name="Rcaron" unicode="&#x158;" horiz-adv-x="1372" 
d="M868 946q0 57 -34 90t-97 33h-180v-246h180q131 0 131 123zM102 1450h676q133 0 239.5 -36.5t173.5 -101.5t102.5 -150.5t35.5 -186.5q0 -146 -80.5 -258t-232.5 -162l315 -555h-500l-272 520h-2v-520h-455v1450zM666 1802l338 180v-294l-338 -154l-340 154v294z" />
    <glyph glyph-name="rcaron" unicode="&#x159;" horiz-adv-x="956" 
d="M557 473v-473h-455v1155h455v-213q70 100 170 160.5t209 60.5v-485h-129q-129 0 -189.5 -45.5t-60.5 -159.5zM563 1501l338 180v-295l-338 -153l-340 153v295z" />
    <glyph glyph-name="Sacute" unicode="&#x15a;" horiz-adv-x="1280" 
d="M1223 449q0 -204 -148 -333.5t-405 -129.5q-126 0 -233 29.5t-190 87.5t-133 150.5t-57 211.5h484q9 -125 110 -125q37 0 62.5 18t25.5 54q0 31 -24 56.5t-63.5 44.5t-91 37t-108 38.5t-113 45.5t-107 61t-89.5 81t-61 111t-21 145q0 141 75 243t199 151t281 49
q265 0 422 -123t166 -346h-489q-3 61 -31 87.5t-70 26.5q-29 0 -47 -19t-18 -54q0 -32 29 -59.5t76.5 -47.5t108 -44.5t123.5 -48.5t123.5 -61t108 -81t76.5 -110t29 -146zM373 1837l530 225v-336l-530 -192v303z" />
    <glyph glyph-name="sacute" unicode="&#x15b;" horiz-adv-x="1185" 
d="M1108 346q0 -157 -133 -258.5t-359 -101.5q-246 0 -402 116t-171 297h436q7 -50 43.5 -75t91.5 -25q34 0 55 15.5t21 37.5q0 30 -33 49t-85.5 30t-116 22.5t-127 33.5t-116 55.5t-85.5 96.5t-33 149q0 165 128.5 273t363.5 108q120 0 215.5 -32t158.5 -89.5t100 -130.5
t50 -161h-403q-9 46 -43 72t-89 26q-71 0 -71 -53q0 -23 20.5 -38.5t55.5 -25.5t80.5 -18.5t95.5 -20t100 -27t95.5 -42.5t80.5 -63t55.5 -92.5t20.5 -127.5zM350 1536l531 225v-336l-531 -192v303z" />
    <glyph glyph-name="uni015E" unicode="&#x15e;" horiz-adv-x="1280" 
d="M1223 449q0 -178 -114 -301.5t-316 -153.5v-64q32 0 65.5 -7t70.5 -25t65 -45t46.5 -71.5t18.5 -100.5t-19 -100.5t-49.5 -72t-71.5 -45.5t-82 -25t-85 -7h-355v231h308q25 0 39 9t14 24q0 31 -53 31h-175v270q-206 31 -333 149t-140 320h484q9 -125 110 -125
q37 0 62.5 18t25.5 54q0 31 -24 56.5t-63.5 44.5t-91 37t-108 38.5t-113 45.5t-107 61t-89.5 81t-61 111t-21 145q0 141 75 243t199 151t281 49q265 0 422 -123t166 -346h-489q-3 61 -31 87.5t-70 26.5q-29 0 -47 -19t-18 -54q0 -32 29 -59.5t76.5 -47.5t108 -44.5
t123.5 -48.5t123.5 -61t108 -81t76.5 -110t29 -146z" />
    <glyph glyph-name="uni015F" unicode="&#x15f;" horiz-adv-x="1185" 
d="M1108 346q0 -127 -90 -220.5t-248 -125.5v-70q32 0 65.5 -7t70.5 -25t65 -45t46.5 -71.5t18.5 -100.5t-19 -100.5t-49.5 -72t-71.5 -45.5t-82 -25t-85 -7h-354v231h307q25 0 39 9t14 24q0 31 -53 31h-174v266q-202 26 -326.5 137t-138.5 270h436q7 -50 43.5 -75t91.5 -25
q34 0 55 15.5t21 37.5q0 30 -33 49t-85.5 30t-116 22.5t-127 33.5t-116 55.5t-85.5 96.5t-33 149q0 165 128.5 273t363.5 108q120 0 215.5 -32t158.5 -89.5t100 -130.5t50 -161h-403q-9 46 -43 72t-89 26q-71 0 -71 -53q0 -23 20.5 -38.5t55.5 -25.5t80.5 -18.5t95.5 -20
t100 -27t95.5 -42.5t80.5 -63t55.5 -92.5t20.5 -127.5z" />
    <glyph glyph-name="Scaron" unicode="&#x160;" horiz-adv-x="1280" 
d="M1223 449q0 -204 -148 -333.5t-405 -129.5q-126 0 -233 29.5t-190 87.5t-133 150.5t-57 211.5h484q9 -125 110 -125q37 0 62.5 18t25.5 54q0 31 -24 56.5t-63.5 44.5t-91 37t-108 38.5t-113 45.5t-107 61t-89.5 81t-61 111t-21 145q0 141 75 243t199 151t281 49
q265 0 422 -123t166 -346h-489q-3 61 -31 87.5t-70 26.5q-29 0 -47 -19t-18 -54q0 -32 29 -59.5t76.5 -47.5t108 -44.5t123.5 -48.5t123.5 -61t108 -81t76.5 -110t29 -146zM641 1802l338 180v-294l-338 -154l-340 154v294z" />
    <glyph glyph-name="scaron" unicode="&#x161;" horiz-adv-x="1185" 
d="M1108 346q0 -157 -133 -258.5t-359 -101.5q-246 0 -402 116t-171 297h436q7 -50 43.5 -75t91.5 -25q34 0 55 15.5t21 37.5q0 30 -33 49t-85.5 30t-116 22.5t-127 33.5t-116 55.5t-85.5 96.5t-33 149q0 165 128.5 273t363.5 108q120 0 215.5 -32t158.5 -89.5t100 -130.5
t50 -161h-403q-9 46 -43 72t-89 26q-71 0 -71 -53q0 -23 20.5 -38.5t55.5 -25.5t80.5 -18.5t95.5 -20t100 -27t95.5 -42.5t80.5 -63t55.5 -92.5t20.5 -127.5zM618 1501l338 180v-295l-338 -153l-339 153v295z" />
    <glyph glyph-name="uni0162" unicode="&#x162;" horiz-adv-x="1261" 
d="M20 1090v360h1221v-360h-385v-1090h-84v-70q32 0 65.5 -7t70.5 -25t65 -45t46.5 -71.5t18.5 -100.5t-19 -100.5t-49.5 -72t-71.5 -45.5t-82 -25t-85 -7h-354v231h307q25 0 39 9t14 24q0 31 -53 31h-174v274h-109v1090h-381z" />
    <glyph glyph-name="uni0163" unicode="&#x163;" horiz-adv-x="892" 
d="M174 473v303h-143v379h143v279h455v-279h188v-379h-188v-311q0 -40 20 -59t64 -19h108v-387h-172h-10v-55q41 0 83.5 -12.5t85.5 -39t70 -78t27 -120.5q0 -56 -19 -100.5t-49.5 -72t-71.5 -45.5t-82 -25t-85 -7h-354v231h307q25 0 39 9t14 24q0 31 -53 31h-174v317
q-203 107 -203 416z" />
    <glyph glyph-name="Tcaron" unicode="&#x164;" horiz-adv-x="1261" 
d="M20 1090v360h1221v-360h-385v-1090h-455v1090h-381zM621 1802l337 180v-294l-337 -154l-340 154v294z" />
    <glyph glyph-name="tcaron" unicode="&#x165;" horiz-adv-x="892" 
d="M692 1823h320q53 -135 53 -254q0 -143 -85.5 -232.5t-252.5 -89.5v162q113 0 113 80v35h-148v299zM174 473v303h-143v379h143v279h455v-279h188v-379h-188v-311q0 -40 20 -59t64 -19h108v-387h-172q-475 0 -475 473z" />
    <glyph glyph-name="Utilde" unicode="&#x168;" horiz-adv-x="1472" 
d="M94 633v817h453v-817q0 -217 186 -217q98 0 145.5 59t47.5 158v817h452v-817q0 -126 -33.5 -231.5t-93 -181.5t-141.5 -129t-180 -79t-207 -26q-137 0 -251 41.5t-199 121t-132 203.5t-47 281zM258 1534q33 190 116 275t214 85q57 0 113 -23.5t102.5 -47t79.5 -23.5
q75 0 90 96h223q-33 -190 -115.5 -274t-214.5 -84q-57 0 -113 23t-102.5 46t-79.5 23q-75 0 -92 -96h-221z" />
    <glyph glyph-name="utilde" unicode="&#x169;" horiz-adv-x="1427" 
d="M870 0v176q-54 -83 -143 -133.5t-211 -50.5q-198 0 -310 133.5t-112 359.5v670h453v-612q0 -83 44 -130.5t118 -47.5q75 0 118 47.5t43 130.5v612h455v-1155h-455zM236 1233q33 190 115.5 275t213.5 85q57 0 113 -23.5t102.5 -47t79.5 -23.5q75 0 90 96h224
q-33 -190 -115.5 -274t-214.5 -84q-57 0 -113 23t-102.5 46t-79.5 23q-75 0 -92 -96h-221z" />
    <glyph glyph-name="Umacron" unicode="&#x16a;" horiz-adv-x="1472" 
d="M94 633v817h453v-817q0 -217 186 -217q98 0 145.5 59t47.5 158v817h452v-817q0 -126 -33.5 -231.5t-93 -181.5t-141.5 -129t-180 -79t-207 -26q-137 0 -251 41.5t-199 121t-132 203.5t-47 281zM297 1575v301h883v-301h-883z" />
    <glyph glyph-name="umacron" unicode="&#x16b;" horiz-adv-x="1427" 
d="M1325 1155v-1155h-455v176q-54 -83 -143 -133.5t-211 -50.5q-198 0 -310 133.5t-112 359.5v670h453v-612q0 -83 44 -130.5t118 -47.5q75 0 118 47.5t43 130.5v612h455zM274 1274v301h883v-301h-883z" />
    <glyph glyph-name="Ubreve" unicode="&#x16c;" horiz-adv-x="1472" 
d="M94 633v817h453v-817q0 -217 186 -217q98 0 145.5 59t47.5 158v817h452v-817q0 -126 -33.5 -231.5t-93 -181.5t-141.5 -129t-180 -79t-207 -26q-137 0 -251 41.5t-199 121t-132 203.5t-47 281zM1122 1946q0 -203 -107.5 -309.5t-277.5 -106.5t-277.5 106.5t-107.5 309.5
v34h211q0 -63 39.5 -95t134.5 -32t134.5 32t39.5 95h211v-34z" />
    <glyph glyph-name="ubreve" unicode="&#x16d;" horiz-adv-x="1427" 
d="M1325 1155v-1155h-455v176q-54 -83 -143 -133.5t-211 -50.5q-198 0 -310 133.5t-112 359.5v670h453v-612q0 -83 44 -130.5t118 -47.5q75 0 118 47.5t43 130.5v612h455zM1100 1645q0 -203 -107.5 -309.5t-277.5 -106.5t-277.5 106.5t-107.5 309.5v34h211q0 -63 39.5 -95
t134.5 -32t134.5 32t39.5 95h211v-34z" />
    <glyph glyph-name="Uring" unicode="&#x16e;" horiz-adv-x="1472" 
d="M94 633v817h453v-817q0 -217 186 -217q98 0 145.5 59t47.5 158v817h452v-817q0 -126 -33.5 -231.5t-93 -181.5t-141.5 -129t-180 -79t-207 -26q-137 0 -251 41.5t-199 121t-132 203.5t-47 281zM737 2056q116 0 193.5 -73.5t77.5 -196.5t-77.5 -196.5t-193.5 -73.5
t-193 73.5t-77 196.5t77 196.5t193 73.5zM737 1690q40 0 67 27t27 69q0 43 -26.5 69.5t-67.5 26.5t-67.5 -26.5t-26.5 -69.5q0 -42 27 -69t67 -27z" />
    <glyph glyph-name="uring" unicode="&#x16f;" horiz-adv-x="1427" 
d="M1325 1155v-1155h-455v176q-54 -83 -143 -133.5t-211 -50.5q-198 0 -310 133.5t-112 359.5v670h453v-612q0 -83 44 -130.5t118 -47.5q75 0 118 47.5t43 130.5v612h455zM715 1389q40 0 67 27t27 69q0 43 -26.5 69.5t-67.5 26.5t-67.5 -26.5t-26.5 -69.5q0 -42 27 -69
t67 -27zM715 1755q116 0 193 -73.5t77 -196.5t-77 -197t-193 -74t-193.5 74t-77.5 197t77.5 196.5t193.5 73.5z" />
    <glyph glyph-name="Uhungarumlaut" unicode="&#x170;" horiz-adv-x="1472" 
d="M94 633v817h453v-817q0 -217 186 -217q98 0 145.5 59t47.5 158v817h452v-817q0 -126 -33.5 -231.5t-93 -181.5t-141.5 -129t-180 -79t-207 -26q-137 0 -251 41.5t-199 121t-132 203.5t-47 281zM508 2032h344l-236 -500h-272zM1012 2032h344l-283 -500h-272z" />
    <glyph glyph-name="uhungarumlaut" unicode="&#x171;" horiz-adv-x="1427" 
d="M1325 1155v-1155h-455v176q-54 -83 -143 -133.5t-211 -50.5q-198 0 -310 133.5t-112 359.5v670h453v-612q0 -83 44 -130.5t118 -47.5q75 0 118 47.5t43 130.5v612h455zM485 1731h344l-235 -500h-272zM989 1731h344l-282 -500h-273z" />
    <glyph glyph-name="Uogonek" unicode="&#x172;" horiz-adv-x="1472" 
d="M94 633v817h453v-817q0 -217 186 -217q98 0 145.5 59t47.5 158v817h452v-817q0 -252 -125 -412t-335 -213l2 -2l-89 -43q-84 -41 -119.5 -71.5t-35.5 -61.5q0 -19 18 -31t51 -12q77 0 175 33v-238q-112 -33 -232 -33q-155 0 -242.5 66t-87.5 180q0 65 28 120t97 108
q-183 62 -286 217t-103 393z" />
    <glyph glyph-name="uogonek" unicode="&#x173;" horiz-adv-x="1427" 
d="M1325 1155v-1155h-2l2 -6l-88 -43q-85 -41 -120.5 -71.5t-35.5 -61.5q0 -19 18.5 -31t51.5 -12q79 0 174 32v-237q-112 -33 -231 -33q-155 0 -242.5 66t-87.5 180q0 125 110 217h-4v176q-54 -83 -143 -133.5t-211 -50.5q-198 0 -310 133.5t-112 359.5v670h453v-612
q0 -83 44 -130.5t118 -47.5q75 0 118 47.5t43 130.5v612h455z" />
    <glyph glyph-name="Wcircumflex" unicode="&#x174;" horiz-adv-x="2252" 
d="M393 0l-332 1450h490l131 -913l197 913h495l197 -913l131 913h489l-331 -1450h-566l-168 823l-168 -823h-565zM1466 1823v-295l-338 160l-340 -160v295l340 153z" />
    <glyph glyph-name="wcircumflex" unicode="&#x175;" horiz-adv-x="1849" 
d="M270 0l-272 1155h451l96 -702l149 702h486l157 -711l99 711h419l-274 -1155h-512l-139 651l-148 -651h-512zM1266 1528v-295l-338 160l-340 -160v295l340 153z" />
    <glyph glyph-name="Ycircumflex" unicode="&#x176;" horiz-adv-x="1495" 
d="M520 440l-520 1010h520l232 -514l231 514h512l-520 -1010v-440h-455v440zM1087 1829v-295l-337 160l-340 -160v295l340 153z" />
    <glyph glyph-name="ycircumflex" unicode="&#x177;" horiz-adv-x="1386" 
d="M702 569l203 586h502l-739 -1708h-498l291 610l-481 1098h505zM1032 1528v-295l-338 160l-340 -160v295l340 153z" />
    <glyph glyph-name="Ydieresis" unicode="&#x178;" horiz-adv-x="1495" 
d="M520 440l-520 1010h520l232 -514l231 514h512l-520 -1010v-440h-455v440zM516 1571q-74 0 -124 50.5t-50 123.5q0 76 50 127t124 51q76 0 127 -50.5t51 -127.5q0 -74 -51 -124t-127 -50zM977 1571q-73 0 -123.5 50.5t-50.5 123.5q0 76 50 127t124 51q77 0 127.5 -50.5
t50.5 -127.5q0 -74 -51 -124t-127 -50z" />
    <glyph glyph-name="Zacute" unicode="&#x179;" horiz-adv-x="1290" 
d="M1188 1450v-342l-582 -746h582v-362h-1086v342l574 748h-574v360h1086zM377 1837l530 225v-336l-530 -192v303z" />
    <glyph glyph-name="zacute" unicode="&#x17a;" horiz-adv-x="1060" 
d="M999 1155v-356l-460 -422h481v-377h-979v356l440 422h-434v377h952zM276 1536l531 225v-336l-531 -192v303z" />
    <glyph glyph-name="Zdotaccent" unicode="&#x17b;" horiz-adv-x="1290" 
d="M1188 1450v-342l-582 -746h582v-362h-1086v342l574 748h-574v360h1086zM641 1571q-73 0 -123.5 50.5t-50.5 123.5q0 76 50 127t124 51q77 0 127.5 -50.5t50.5 -127.5q0 -74 -51 -124t-127 -50z" />
    <glyph glyph-name="zdotaccent" unicode="&#x17c;" horiz-adv-x="1060" 
d="M999 1155v-356l-460 -422h481v-377h-979v356l440 422h-434v377h952zM541 1270q-73 0 -123.5 50t-50.5 124q0 76 50 127t124 51q77 0 127.5 -51t50.5 -127q0 -74 -51 -124t-127 -50z" />
    <glyph glyph-name="Zcaron" unicode="&#x17d;" horiz-adv-x="1290" 
d="M1188 1450v-342l-582 -746h582v-362h-1086v342l574 748h-574v360h1086zM645 1802l338 180v-294l-338 -154l-340 154v294z" />
    <glyph glyph-name="zcaron" unicode="&#x17e;" horiz-adv-x="1060" 
d="M999 1155v-356l-460 -422h481v-377h-979v356l440 422h-434v377h952zM545 1501l338 180v-295l-338 -153l-340 153v295z" />
    <glyph glyph-name="uni018F" unicode="&#x18f;" horiz-adv-x="1583" 
d="M778 401q98 0 176 49.5t99 137.5h-529q6 -82 78.5 -134.5t175.5 -52.5zM788 -18q-331 0 -529 200.5t-198 540.5q0 32 9 115h989q-7 120 -82.5 182.5t-179.5 62.5q-81 0 -145.5 -38t-84.5 -103h-477q30 155 123.5 278.5t243.5 196t331 72.5q332 0 533 -204t201 -550
q0 -344 -201 -548.5t-533 -204.5z" />
    <glyph glyph-name="florin" unicode="&#x192;" horiz-adv-x="696" 
d="M162 1165q26 238 175 348.5t437 110.5l-39 -387q-58 0 -87.5 -15.5t-33.5 -56.5l-2 -10h129l-39 -379h-129l-102 -977q-11 -101 -45.5 -178t-84 -125t-118.5 -78t-140.5 -41.5t-158.5 -11.5h-67l37 389h77q38 0 45 45l105 977h-84l39 379h84z" />
    <glyph glyph-name="uni01FC" unicode="&#x1fc;" horiz-adv-x="2019" 
d="M711 1831l530 225v-336l-530 -192v303zM1004 1100l-261 -559h261v559zM1950 1090h-492v-175h430v-342h-430v-211h492v-362h-946v199h-418l-92 -199h-494l694 1450h1256v-360z" />
    <glyph glyph-name="uni01FD" unicode="&#x1fd;" horiz-adv-x="2158" 
d="M1483 813q-148 0 -174 -129h348q0 64 -49.5 96.5t-124.5 32.5zM2093 416q-38 -190 -162.5 -310t-300.5 -120q-122 0 -209 45.5t-131 126.5v-158h-452v158q-42 -80 -124.5 -126t-195.5 -46q-206 0 -341.5 160t-135.5 432t135.5 431.5t341.5 159.5q113 0 195.5 -46
t124.5 -126v158h452v-158q42 82 129.5 127t210.5 45q217 0 352.5 -157t135.5 -424q0 -37 -11 -90h-800q10 -86 51.5 -121t109.5 -35q111 0 144 74h481zM502 578q0 -92 47.5 -143.5t120.5 -51.5t120.5 51.5t47.5 143.5t-47.5 143t-120.5 51t-120.5 -51t-47.5 -143zM815 1536
l531 225v-336l-531 -192v303z" />
    <glyph glyph-name="uni0218" unicode="&#x218;" horiz-adv-x="1402" 
d="M539 -72h319q53 -138 53 -276q0 -158 -86 -259.5t-252 -101.5v160q113 0 113 154v22h-147v301zM1223 449q0 -204 -148 -333.5t-405 -129.5q-126 0 -233 29.5t-190 87.5t-133 150.5t-57 211.5h484q9 -125 110 -125q37 0 62.5 18t25.5 54q0 31 -24 56.5t-63.5 44.5t-91 37
t-108 38.5t-113 45.5t-107 61t-89.5 81t-61 111t-21 145q0 141 75 243t199 151t281 49q265 0 422 -123t166 -346h-489q-3 61 -31 87.5t-70 26.5q-29 0 -47 -19t-18 -54q0 -32 29 -59.5t76.5 -47.5t108 -44.5t123.5 -48.5t123.5 -61t108 -81t76.5 -110t29 -146z" />
    <glyph glyph-name="uni0219" unicode="&#x219;" horiz-adv-x="1185" 
d="M426 -72h319q52 -135 52 -276q0 -75 -20.5 -139.5t-60.5 -114.5t-105.5 -78.5t-149.5 -28.5v160q112 0 112 154v22h-147v301zM1108 346q0 -157 -133 -258.5t-359 -101.5q-246 0 -402 116t-171 297h436q7 -50 43.5 -75t91.5 -25q34 0 55 15.5t21 37.5q0 30 -33 49
t-85.5 30t-116 22.5t-127 33.5t-116 55.5t-85.5 96.5t-33 149q0 165 128.5 273t363.5 108q120 0 215.5 -32t158.5 -89.5t100 -130.5t50 -161h-403q-9 46 -43 72t-89 26q-71 0 -71 -53q0 -23 20.5 -38.5t55.5 -25.5t80.5 -18.5t95.5 -20t100 -27t95.5 -42.5t80.5 -63
t55.5 -92.5t20.5 -127.5z" />
    <glyph glyph-name="uni021A" unicode="&#x21a;" horiz-adv-x="1261" 
d="M469 -72h319q52 -135 52 -276q0 -75 -20.5 -139.5t-60.5 -114.5t-105.5 -78.5t-149.5 -28.5v160q112 0 112 154v22h-147v301zM20 1090v360h1221v-360h-385v-1090h-455v1090h-381z" />
    <glyph glyph-name="uni021B" unicode="&#x21b;" horiz-adv-x="892" 
d="M301 -72h320q53 -138 53 -276q0 -158 -86 -259.5t-252 -101.5v160q113 0 113 154v22h-148v301zM174 473v303h-143v379h143v279h455v-279h188v-379h-188v-311q0 -40 20 -59t64 -19h108v-387h-172q-475 0 -475 473z" />
    <glyph glyph-name="uni0259" unicode="&#x259;" horiz-adv-x="1261" 
d="M631 342q121 0 141 117h-270q0 -57 37 -87t92 -30zM631 -14q-263 0 -426.5 156.5t-163.5 424.5q0 47 6 90h729q-8 150 -123 150q-75 0 -106 -68h-481q37 187 193.5 308.5t371.5 121.5q173 0 306 -70t208.5 -205t75.5 -316q0 -273 -163.5 -432.5t-426.5 -159.5z" />
    <glyph glyph-name="uni02BC" unicode="&#x2bc;" horiz-adv-x="774" 
d="M430 846h-299l90 604h451z" />
    <glyph glyph-name="circumflex" unicode="&#x2c6;" horiz-adv-x="718" 
d="M698 1528v-295l-338 160l-340 -160v295l340 153z" />
    <glyph glyph-name="caron" unicode="&#x2c7;" horiz-adv-x="718" 
d="M360 1501l338 180v-295l-338 -153l-340 153v295z" />
    <glyph glyph-name="uni02C9" unicode="&#x2c9;" horiz-adv-x="923" 
d="M20 1274v301h883v-301h-883z" />
    <glyph glyph-name="breve" unicode="&#x2d8;" horiz-adv-x="808" 
d="M791 1645q0 -203 -107.5 -309.5t-277.5 -106.5t-278 106.5t-108 309.5v34h211q0 -63 39.5 -95t135.5 -32q95 0 134.5 32t39.5 95h211v-34z" />
    <glyph glyph-name="dotaccent" unicode="&#x2d9;" horiz-adv-x="393" 
d="M195 1270q-74 0 -124.5 50.5t-50.5 123.5q0 76 50.5 127t124.5 51q77 0 127.5 -51t50.5 -127q0 -74 -51 -124t-127 -50z" />
    <glyph glyph-name="ring" unicode="&#x2da;" horiz-adv-x="579" 
d="M291 1755q116 0 193 -73.5t77 -196.5t-77 -197t-193 -74t-193.5 74t-77.5 197t77.5 196.5t193.5 73.5zM291 1389q40 0 67 27t27 69q0 43 -26.5 69.5t-67.5 26.5t-67.5 -26.5t-26.5 -69.5q0 -42 27 -69t67 -27z" />
    <glyph glyph-name="ogonek" unicode="&#x2db;" horiz-adv-x="618" 
d="M436 162l76 31l86 -193l-88 -43q-85 -41 -120.5 -71.5t-35.5 -61.5q0 -19 18.5 -31t51.5 -12q76 0 174 33v-238q-112 -33 -231 -33q-155 0 -242.5 66t-87.5 180q0 53 18 97.5t61.5 90.5t122.5 91.5t197 93.5z" />
    <glyph glyph-name="tilde" unicode="&#x2dc;" horiz-adv-x="937" 
d="M0 1233q33 190 116 275t214 85q57 0 113 -23.5t102.5 -47t79.5 -23.5q75 0 90 96h223q-33 -190 -115.5 -274t-214.5 -84q-57 0 -113 23t-102.5 46t-79.5 23q-75 0 -92 -96h-221z" />
    <glyph glyph-name="hungarumlaut" unicode="&#x2dd;" horiz-adv-x="1050" 
d="M184 1731h344l-235 -500h-273zM688 1731h344l-282 -500h-273z" />
    <glyph glyph-name="pi" unicode="&#x3c0;" horiz-adv-x="1449" 
d="M20 815v340h1420v-340h-133v-815h-455v815h-244v-815h-454v815h-134z" />
    <glyph glyph-name="dvCandrabindu" unicode="&#x901;" horiz-adv-x="0" 
d="M-365 1653q-259 0 -397.5 122t-138.5 355h330q0 -81 55.5 -132.5t150.5 -51.5q93 0 148 51.5t55 132.5h334q0 -233 -138.5 -355t-398.5 -122zM-369 2025q-60 0 -103.5 43.5t-43.5 106.5q0 61 43.5 105t103.5 44q65 0 108.5 -43.5t43.5 -105.5q0 -63 -43.5 -106.5
t-108.5 -43.5z" />
    <glyph glyph-name="dvAnusvara" unicode="&#x902;" horiz-adv-x="0" 
d="M-348 1636q-96 0 -164 68t-68 164q0 98 67.5 165.5t164.5 67.5q98 0 166.5 -67.5t68.5 -165.5q0 -96 -68.5 -164t-166.5 -68z" />
    <glyph glyph-name="dvVisarga" unicode="&#x903;" horiz-adv-x="634" 
d="M317 696q-97 0 -165 68t-68 164q0 97 68 165t165 68t165.5 -68t68.5 -165q0 -95 -68.5 -163.5t-165.5 -68.5zM317 121q-97 0 -165 67t-68 162q0 98 68 166t165 68t165.5 -68t68.5 -166q0 -95 -68.5 -162t-165.5 -67z" />
    <glyph glyph-name="dvA" unicode="&#x905;" horiz-adv-x="1734" 
d="M530 1010q51 0 85 22.5t34 67.5q0 37 -20 59.5t-54 22.5t-54.5 -22.5t-20.5 -55.5h-383q0 191 124 310.5t334 119.5q204 0 323.5 -103t119.5 -276q0 -106 -51.5 -183t-143.5 -116v-8q61 -19 99 -51h260v719h573v-347h-158v-1169h-415v455h-152q-25 -152 -139 -239
t-287 -87q-228 0 -364 121.5t-136 320.5h390q0 -35 22 -60.5t62 -25.5q39 0 60 24.5t21 63.5q0 46 -33.5 74.5t-95.5 28.5h-100v334h100z" />
    <glyph glyph-name="dvAA" unicode="&#x906;" horiz-adv-x="2418" 
d="M530 1010q51 0 85 22.5t34 67.5q0 37 -20 59.5t-54 22.5t-54.5 -22.5t-20.5 -55.5h-383q0 191 124 310.5t334 119.5q204 0 323.5 -103t119.5 -276q0 -106 -51.5 -183t-143.5 -116v-8q61 -19 99 -51h260v719h1259v-347h-155v-1169h-418v1169h-271v-1169h-415v455h-152
q-25 -152 -139 -239t-287 -87q-228 0 -364 121.5t-136 320.5h390q0 -35 22 -60.5t62 -25.5q39 0 60 24.5t21 63.5q0 46 -33.5 74.5t-95.5 28.5h-100v334h100z" />
    <glyph glyph-name="dvI" unicode="&#x907;" horiz-adv-x="1181" 
d="M-25 1169v347h1231v-347h-239v-383h-392q-61 0 -61 -47q0 -45 64 -45h88q66 0 125 -11t115 -38.5t96 -69.5t64 -108t24 -150q0 -161 -94 -260.5t-255 -99.5q-118 0 -198 53v-192h-396v528h375q1 -42 26.5 -63t65.5 -21q38 0 59 18.5t21 49.5q0 73 -110 73q-71 0 -142 5
q-49 3 -96 15.5t-93.5 38.5t-81 63t-56 93t-21.5 125q0 165 104 251.5t273 86.5h92v88h-588z" />
    <glyph glyph-name="dvII" unicode="&#x908;" horiz-adv-x="1181" 
d="M543 10v-192h-396v528h375q1 -42 26.5 -63t65.5 -21q38 0 59 18.5t21 49.5q0 73 -110 73q-71 0 -142 5q-49 3 -96 15.5t-93.5 38.5t-81 63t-56 93t-21.5 125q0 165 104 251.5t273 86.5h92v88h-588v347h594v118q0 56 8 108.5t27 108t53 100.5t82 81.5t119.5 56.5t159.5 20
q222 0 336 -124t102 -343h-364q4 61 -13.5 92t-52.5 31q-40 0 -56 -30t-16 -95v-124h252v-347h-239v-383h-392q-61 0 -61 -47q0 -45 64 -45h88q66 0 125 -11t115 -38.5t96 -69.5t64 -108t24 -150q0 -161 -94 -260.5t-255 -99.5q-118 0 -198 53z" />
    <glyph glyph-name="dvU" unicode="&#x909;" horiz-adv-x="1144" 
d="M-23 1167v349h1190v-349h-135v-65q0 -122 -45 -199t-119 -98v-6q92 -33 150.5 -125t58.5 -217q0 -203 -127.5 -325t-351.5 -122q-240 0 -385 130t-145 362h397q0 -55 30.5 -88t82.5 -33q49 0 77.5 30t28.5 81q0 52 -31.5 85t-91.5 33h-141v363h80q56 0 93.5 33.5
t37.5 113.5v47h-654z" />
    <glyph glyph-name="dvUU" unicode="&#x90a;" horiz-adv-x="1730" 
d="M-23 1169v347h1772v-347h-717v-67q0 -122 -45 -199t-119 -98v-6h328q227 0 354 -102t127 -300q0 -161 -100 -264.5t-287 -103.5q-66 0 -135 14v311h59q31 0 47.5 16t16.5 42t-19 42.5t-57 16.5h-133q2 -12 2 -39q0 -185 -127 -303.5t-346 -118.5q-240 0 -385 130
t-145 362h397q0 -55 30.5 -88t82.5 -33q49 0 77.5 30t28.5 81q0 52 -31.5 85t-91.5 33h-141v363h80q56 0 93.5 33.5t37.5 113.5v49h-654z" />
    <glyph glyph-name="dvvR" unicode="&#x90b;" horiz-adv-x="2193" 
d="M948 0v225l-270 -225h-535v16l789 588q-54 90 -174 90q-109 0 -166 -63t-57 -166h-418q0 259 135 419t379 160q197 0 317 -114v239h-971v347h2239v-347h-885v-229h254q47 0 75 21t28 63v47h356v-711h-64q-66 0 -97.5 -27t-31.5 -73q0 -96 152 -96q52 0 117 14v-330
q-89 -14 -174 -14q-222 0 -358 103.5t-136 283.5q0 126 63 213.5t173 132.5v68q-79 -23 -166 -23h-191v-612h-383z" />
    <glyph glyph-name="dvvL" unicode="&#x90c;" horiz-adv-x="1861" 
d="M-23 1169v347h1907v-347h-360v-153q115 -55 184.5 -170.5t69.5 -290.5q0 -104 -33 -205h-12q-104 0 -144.5 -26.5t-40.5 -77.5q0 -43 45 -66.5t117 -23.5q70 0 119 12v-330q-95 -12 -174 -12q-229 0 -366.5 104.5t-137.5 294.5q0 107 59.5 190.5t151.5 125.5v16
q0 65 -32 102t-87 37q-68 0 -98.5 -47t-30.5 -110v-74h-344v74q0 63 -30.5 110t-98.5 47q-62 0 -96.5 -39.5t-34.5 -107.5q0 -164 152 -164q33 0 53 2v-360q-33 -2 -72 -2q-266 0 -411.5 141.5t-145.5 388.5q0 105 28 191t75 144t110.5 97.5t133.5 57.5t145 18
q252 0 354 -195h8q57 110 180 160v141h-1143z" />
    <glyph glyph-name="dvEcandra" unicode="&#x90d;" horiz-adv-x="1337" 
d="M-23 1169v347h1383v-347h-146v-114q0 -122 -27.5 -210.5t-87.5 -150t-163 -83.5t-246 -1v373q58 -12 88.5 10.5t30.5 71.5v104h-250v-641q0 -68 34 -101.5t81 -33.5t77.5 28.5t30.5 76.5h408q0 -217 -139.5 -338t-370.5 -121q-259 0 -398 138t-139 368l-2 624h-164z
M670 1655q-272 0 -404.5 125.5t-132.5 351.5h356q0 -80 44 -126t137 -46q92 0 136 46t44 126h356q0 -226 -133 -351.5t-403 -125.5z" />
    <glyph glyph-name="dvE" unicode="&#x90f;" horiz-adv-x="1337" 
d="M-23 1169v347h1383v-347h-146v-114q0 -122 -27.5 -210.5t-87.5 -150t-163 -83.5t-246 -1v373q58 -12 88.5 10.5t30.5 71.5v104h-250v-641q0 -68 34 -101.5t81 -33.5t77.5 28.5t30.5 76.5h408q0 -217 -139.5 -338t-370.5 -121q-259 0 -398 138t-139 368l-2 624h-164z" />
    <glyph glyph-name="dvAI" unicode="&#x910;" horiz-adv-x="1337" 
d="M680 39q-259 0 -398 138t-139 368l-2 624h-164v347h824q-51 77 -80.5 114.5t-67.5 65.5t-77.5 35.5t-104.5 7.5h-121v334h115q93 -1 157 -8t127.5 -29.5t111 -58.5t102.5 -100.5t107.5 -149.5t119.5 -211h170v-347h-146v-114q0 -122 -27.5 -210.5t-87.5 -150t-163 -83.5
t-246 -1v373q58 -12 88.5 10.5t30.5 71.5v104h-250v-641q0 -68 34 -101.5t81 -33.5t77.5 28.5t30.5 76.5h408q0 -217 -139.5 -338t-370.5 -121z" />
    <glyph glyph-name="dvOcandra" unicode="&#x911;" horiz-adv-x="2418" 
d="M530 1010q51 0 85 22.5t34 67.5q0 37 -20 59.5t-54 22.5t-54.5 -22.5t-20.5 -55.5h-383q0 191 124 310.5t334 119.5q204 0 323.5 -103t119.5 -276q0 -106 -51.5 -183t-143.5 -116v-8q61 -19 99 -51h260v719h1259v-347h-155v-1169h-418v1169h-271v-1169h-415v455h-152
q-25 -152 -139 -239t-287 -87q-228 0 -364 121.5t-136 320.5h390q0 -35 22 -60.5t62 -25.5q39 0 60 24.5t21 63.5q0 46 -33.5 74.5t-95.5 28.5h-100v334h100zM1743 1655q-272 0 -404.5 125.5t-132.5 351.5h357q0 -81 43.5 -126.5t136.5 -45.5q92 0 136 46t44 126h356
q0 -226 -133 -351.5t-403 -125.5z" />
    <glyph glyph-name="dvO" unicode="&#x913;" horiz-adv-x="2418" 
d="M1597 0h-415v455h-152q-25 -152 -139 -239t-287 -87q-228 0 -364 121.5t-136 320.5h390q0 -35 22 -60.5t62 -25.5q39 0 60 24.5t21 63.5q0 46 -33.5 74.5t-95.5 28.5h-100v334h100q51 0 85 22.5t34 67.5q0 37 -20 59.5t-54 22.5t-54.5 -22.5t-20.5 -55.5h-383
q0 191 124 310.5t334 119.5q204 0 323.5 -103t119.5 -276q0 -106 -51.5 -183t-143.5 -116v-8q61 -19 99 -51h260v719h692q-51 77 -80.5 114.5t-67.5 65.5t-77.5 35.5t-104.5 7.5h-121v334h115q93 -1 157 -8t127.5 -29.5t111 -58.5t102.5 -100.5t107.5 -149.5t119.5 -211h178
v-347h-155v-1169h-418v1169h-271v-1169z" />
    <glyph glyph-name="dvAU" unicode="&#x914;" horiz-adv-x="2418" 
d="M1597 0h-415v455h-152q-25 -152 -139 -239t-287 -87q-228 0 -364 121.5t-136 320.5h390q0 -35 22 -60.5t62 -25.5q39 0 60 24.5t21 63.5q0 46 -33.5 74.5t-95.5 28.5h-100v334h100q51 0 85 22.5t34 67.5q0 37 -20 59.5t-54 22.5t-54.5 -22.5t-20.5 -55.5h-383
q0 191 124 310.5t334 119.5q204 0 323.5 -103t119.5 -276q0 -106 -51.5 -183t-143.5 -116v-8q61 -19 99 -51h260v719h712q-27 14 -63.5 34t-52 26.5t-35.5 17.5t-36 13.5t-31 7t-43 4.5t-50 0.5t-72 0.5h-125v256h115q145 0 203.5 -12t136.5 -68q-35 53 -69 88t-60 53
t-63 27t-60 10.5t-69 1.5h-134v258h123q73 0 116 -2t95 -14.5t83 -29t75.5 -57t77 -86.5t84 -128.5t99.5 -172t120 -228.5h182v-347h-155v-1169h-418v1169h-271v-1169z" />
    <glyph glyph-name="dvKA" unicode="&#x915;" horiz-adv-x="1937" 
d="M786 0v205q-96 -117 -286 -117q-193 0 -303.5 134.5t-110.5 346.5q0 217 112.5 349.5t317.5 132.5q180 0 270 -107v225h-809v347h1983v-347h-772v-225q90 107 258 107q130 0 223.5 -66t137.5 -171t44 -234q0 -217 -116 -341t-303 -124q-75 0 -146 18v324q12 -4 31 -4
q50 0 80 31t30 85q0 53 -29.5 90t-88.5 37q-58 0 -89.5 -39t-31.5 -110v-547h-402zM647 438q60 0 99.5 37.5t39.5 95.5q-2 57 -39 92t-98 35q-62 0 -100.5 -36.5t-38.5 -94.5q0 -57 37 -93t100 -36z" />
    <glyph glyph-name="dvKHA" unicode="&#x916;" horiz-adv-x="2000" 
d="M1348 510q46 0 75 30.5t29 80.5q-2 46 -28 77t-76 31q-49 0 -80 -28.5t-31 -79.5q0 -54 31 -82.5t80 -28.5zM1253 195q-25 0 -61 4q-77 -100 -195 -158.5t-268 -58.5q-289 0 -453.5 162.5t-164.5 463.5v223h39q144 0 205 59.5t61 180.5v98h-439v347h2046v-347h-155v-1169
h-416v256q-70 -61 -199 -61zM739 340q116 0 174 66q-47 96 -47 215q0 181 108 301t279 120q124 0 199 -65v192h-616v-157q0 -190 -83.5 -311t-228.5 -152q3 -91 58.5 -150t156.5 -59z" />
    <glyph glyph-name="dvGA" unicode="&#x917;" horiz-adv-x="1759" 
d="M1206 0v1169h-190v-405q0 -107 -28 -194.5t-84 -154t-147.5 -103t-211.5 -36.5q-231 0 -359.5 118t-128.5 349q0 45 2 68h404v-66q0 -56 15.5 -85t53.5 -29q66 0 66 114v424h-621v347h1805v-347h-158v-1169h-418z" />
    <glyph glyph-name="dvGHA" unicode="&#x918;" horiz-adv-x="1415" 
d="M649 516q93 0 154 56.5t61 152.5v444h-315v-39q0 -57 28 -87.5t95 -30.5h71v-334h-104q-50 0 -76 -22t-26 -60q0 -39 30.5 -59.5t81.5 -20.5zM-23 1169v347h1461v-347h-154v-1169h-420v293q-118 -115 -319 -115q-119 0 -215 40.5t-156.5 127t-60.5 205.5q0 105 54 179.5
t132 105.5v8q-168 58 -168 266v59h-154z" />
    <glyph glyph-name="dvNGA" unicode="&#x919;" horiz-adv-x="1490" 
d="M1274 518q-86 0 -146.5 60t-60.5 145q0 88 60.5 148.5t146.5 60.5q88 0 148.5 -60.5t60.5 -148.5q0 -85 -61 -145t-148 -60zM-23 1169v347h1536v-347h-536v-383h-389q-29 0 -46.5 -12t-17.5 -33q0 -47 62 -47h90q67 0 126.5 -11.5t115 -38.5t96 -68.5t64.5 -104.5
t24 -143q0 -176 -126.5 -276.5t-354.5 -100.5t-379.5 102.5t-163.5 292.5h416q2 -25 14 -42.5t30 -26t35 -12t35 -3.5q43 0 71 18t28 52q0 71 -109 71h-66q-35 0 -69.5 3t-78 12.5t-81 25t-75 42.5t-63.5 63t-42.5 89t-16.5 118q0 155 104.5 238t272.5 83h92v92h-598z" />
    <glyph glyph-name="dvCA" unicode="&#x91a;" horiz-adv-x="1566" 
d="M-23 1169v347h1612v-347h-157v-1169h-418v274q-118 -127 -334 -127q-179 0 -294.5 101t-115.5 274q0 108 60 183h-226v325h766v-325h-94q-47 0 -80.5 -27t-33.5 -78q0 -54 41 -82t108 -26q203 6 203 284v393h-1037z" />
    <glyph glyph-name="dvCHA" unicode="&#x91b;" horiz-adv-x="1695" 
d="M-23 1169v347h1741v-347h-344v-116q115 -47 177.5 -153t62.5 -255q0 -281 -204.5 -446.5t-582.5 -165.5q-159 0 -288.5 27.5t-226 82.5t-149 143t-52.5 203q0 215 186 304v8q-166 55 -166 266v102h-154zM831 387q215 0 316.5 68t101.5 211q0 50 -16.5 84t-52.5 34
q-37 0 -55.5 -31t-18.5 -83q0 -66 20 -138h-340q-24 78 -24 185q0 130 60.5 216t166.5 124v112h-440v-84q0 -118 96 -118h39v-332h-31q-56 0 -87 -30t-31 -75q0 -68 66 -105.5t230 -37.5z" />
    <glyph glyph-name="dvJA" unicode="&#x91c;" horiz-adv-x="1785" 
d="M-23 1169v347h1831v-347h-155v-1169h-418v631h-139q-8 -209 -143 -338t-359 -129q-252 0 -385 133t-133 356v332h420v-319q0 -138 98 -138q94 0 94 138v319h547v184h-1258z" />
    <glyph glyph-name="dvJHA" unicode="&#x91d;" horiz-adv-x="1806" 
d="M578 694h684v475h-295v-383h-392q-61 0 -61 -47q0 -45 64 -45zM1262 0v383h-197q12 -52 12 -113q0 -139 -87.5 -225t-237.5 -86q-128 0 -209 51v-192h-393v526h374q0 -41 25 -61.5t65 -20.5q38 0 59 18.5t21 49.5q0 73 -110 73q-71 0 -142 5q-49 3 -96 15.5t-93.5 38.5
t-81 63t-56 93t-21.5 125q0 165 104 251.5t273 86.5h92v88h-586v347h1852v-347h-158v-1169h-409z" />
    <glyph glyph-name="dvNYA" unicode="&#x91e;" horiz-adv-x="1742" 
d="M-23 1169v347h1788v-347h-155v-1169h-418v401h-137q-42 -161 -169 -249.5t-304 -88.5q-208 0 -347.5 113t-148.5 316h393q12 -42 43 -60t64 -18q54 0 84 41t30 106q0 63 -30 104.5t-84 41.5q-33 0 -64 -17.5t-43 -58.5h-393q6 136 74.5 235t177.5 147t244 48
q168 0 291.5 -80t173.5 -229h145v417h-1215z" />
    <glyph glyph-name="dvTTA" unicode="&#x91f;" horiz-adv-x="1316" 
d="M-23 1169v347h1362v-347h-303v-454h-327q-88 0 -146.5 -46.5t-58.5 -129.5q0 -75 49 -121.5t135 -46.5q90 0 141.5 49.5t51.5 132.5h397q0 -248 -157 -395.5t-423 -147.5q-273 0 -442.5 146t-169.5 387q0 220 143 361.5t398 156.5v108h-650z" />
    <glyph glyph-name="dvTTHA" unicode="&#x920;" horiz-adv-x="1368" 
d="M684 385q87 0 135.5 50t48.5 130t-48.5 129t-135.5 49q-85 0 -133.5 -49t-48.5 -129t48.5 -130t133.5 -50zM684 39q-169 0 -303.5 61t-214.5 181.5t-80 283.5q0 101 30 185.5t84 145.5t123 103t152 66v104h-498v347h1414v-347h-504v-102q84 -23 154.5 -64.5t125.5 -102.5
t86 -147t31 -188q0 -163 -80.5 -283.5t-215 -181.5t-304.5 -61z" />
    <glyph glyph-name="dvDDA" unicode="&#x921;" horiz-adv-x="1146" 
d="M-23 1169v347h1192v-347h-192v-383h-389q-29 0 -46.5 -12t-17.5 -33q0 -47 62 -47h90q67 0 126.5 -11.5t115 -38.5t96 -68.5t64.5 -104.5t24 -143q0 -176 -126.5 -276.5t-354.5 -100.5t-379.5 102.5t-163.5 292.5h416q2 -25 14 -42.5t30 -26t35 -12t35 -3.5q43 0 71 18
t28 52q0 71 -109 71h-66q-35 0 -69.5 3t-78 12.5t-81 25t-75 42.5t-63.5 63t-42.5 89t-16.5 118q0 155 104.5 238t272.5 83h90v92h-596z" />
    <glyph glyph-name="dvDDHA" unicode="&#x922;" horiz-adv-x="1359" 
d="M-23 1169v347h1405v-347h-303v-366h-266q-141 0 -232.5 -74t-91.5 -205q0 -118 70 -192t221 -74q96 0 154.5 31.5t58.5 97.5q0 26 -14 41.5t-39 15.5q-24 0 -37.5 -14.5t-13.5 -34.5q0 -16 6 -28h-293q-10 52 -10 88q0 135 99 208.5t267 73.5q184 0 287 -95t103 -255
q0 -204 -147.5 -315t-428.5 -111q-145 0 -269.5 38t-217.5 110t-146 183.5t-53 250.5q0 251 164.5 396.5t425.5 145.5h12v84h-711z" />
    <glyph glyph-name="dvNNA" unicode="&#x923;" horiz-adv-x="1886" 
d="M647 596q40 0 61 24.5t21 65.5v483h-168v-483q0 -40 24 -65t62 -25zM-23 1169v347h1932v-347h-158v-1169h-418v1169h-194v-444q0 -103 -30.5 -189.5t-90.5 -151.5t-154.5 -101.5t-216.5 -36.5q-123 0 -219 37.5t-155 104t-89 152t-30 185.5v444h-177z" />
    <glyph glyph-name="dvTA" unicode="&#x924;" horiz-adv-x="1468" 
d="M-23 1169v347h1514v-347h-158v-1169h-418v643h-227q-80 0 -130 -43t-50 -113q0 -72 44 -115.5t134 -43.5h33v-326h-101q-86 0 -162.5 16.5t-145 54.5t-118 94.5t-78 141t-28.5 189.5q0 103 31 187t85 141.5t128.5 97t159 57.5t178.5 18h247v170h-938z" />
    <glyph glyph-name="dvTHA" unicode="&#x925;" horiz-adv-x="1662" 
d="M1110 0v338q-53 -82 -166 -136.5t-264 -54.5q-268 0 -433 160.5t-165 437.5q0 102 12 173h164q172 0 262 43t90 143q0 33 -17 54.5t-44 21.5q-30 0 -49 -21t-19 -61q0 -26 8 -62h-374q-9 61 -9 72q0 85 24 156t66 120t99 83.5t122 50.5t136 16q200 0 324 -119t124 -323
q0 -93 -29.5 -172.5t-88.5 -143.5t-158.5 -104t-230.5 -47q21 -55 80 -94t169 -39q161 0 264 106.5t103 310.5v607h576v-347h-158v-1169h-418z" />
    <glyph glyph-name="dvDA" unicode="&#x926;" horiz-adv-x="1255" 
d="M-23 1169v347h1301l-2 -347h-193v-481h-405q-78 0 -121 -39t-43 -104q0 -59 33 -93t90 -34q58 0 88.5 36t30.5 93h387v-637h-408v252q-78 -72 -221 -72q-82 0 -156.5 27.5t-136.5 81.5t-98.5 146t-36.5 210q0 229 150.5 359t396.5 130h31v125h-687z" />
    <glyph glyph-name="dvDHA" unicode="&#x927;" horiz-adv-x="1523" 
d="M598 133q-97 0 -182 24.5t-150.5 71t-103 120t-37.5 165.5q0 63 21 115.5t56 87t72.5 56.5t77.5 34v8q-104 35 -175 121.5t-71 222.5q0 174 114 274.5t290 100.5q184 0 285.5 -99.5t101.5 -260.5q0 -53 -4 -93h-305q2 20 2 37q0 32 -18 50t-46 18q-31 0 -49 -20t-18 -54
q0 -39 21.5 -65.5t58 -39t70.5 -17.5t73 -5h127v-334h-107q-153 0 -153 -90q0 -43 40.5 -65.5t117.5 -22.5q138 0 216 85.5t78 229.5v728h566v-347h-148v-1169h-418v279q-137 -146 -403 -146z" />
    <glyph glyph-name="dvNA" unicode="&#x928;" horiz-adv-x="1728" 
d="M578 430q51 0 82.5 32t31.5 83q0 50 -31.5 82t-82.5 32q-52 0 -85.5 -32t-33.5 -82q0 -51 33 -83t86 -32zM-23 1169v347h1774v-347h-158v-1169h-417v659h-187q33 -78 33 -174q0 -100 -36.5 -179t-100 -127.5t-143.5 -73.5t-171 -25q-94 0 -181 30.5t-155.5 87.5
t-109.5 146.5t-41 198.5q0 116 42.5 206.5t115.5 145.5t165.5 83t198.5 28h570v163h-1199z" />
    <glyph glyph-name="dvPA" unicode="&#x92a;" horiz-adv-x="1415" 
d="M696 629q82 0 125 53.5t43 136.5v350h-329v-348q0 -85 40 -138.5t121 -53.5zM-23 1169v347h1461v-347h-156v-1169h-418v371q-107 -92 -278 -92q-113 0 -203 42t-147.5 115.5t-88 171.5t-30.5 213v348h-140z" />
    <glyph glyph-name="dvPHA" unicode="&#x92b;" horiz-adv-x="2015" 
d="M680 629q73 0 112 48.5t39 121.5v370h-296v-370q0 -75 36.5 -122.5t108.5 -47.5zM-23 1169v347h2061v-347h-789v-223q100 105 279 105q128 0 222 -64.5t138.5 -167t44.5 -229.5q0 -222 -116 -348.5t-304 -126.5q-88 0 -161 24v318q24 -6 47 -6q53 0 81.5 34t28.5 84
q0 53 -29.5 90t-88.5 37q-68 0 -105 -49.5t-37 -144.5v-502h-418v367q-98 -88 -262 -88q-144 0 -248 70t-154 186t-50 264v370h-140z" />
    <glyph glyph-name="dvBA" unicode="&#x92c;" horiz-adv-x="1406" 
d="M872 0v174q-98 -94 -286 -94q-218 0 -359 143.5t-141 366.5q0 212 140.5 347.5t359.5 135.5q168 0 286 -72v168h-895v347h1453v-347h-156v-1169h-402zM676 809q-69 0 -125 -35l342 -231q4 28 4 47q0 95 -62 157t-159 62zM676 373q65 0 123 33l-344 233q-6 -24 -6 -49
q0 -97 66 -157t161 -60z" />
    <glyph glyph-name="dvBHA" unicode="&#x92d;" horiz-adv-x="1822" 
d="M573 426q54 0 79.5 33t25.5 86v80h-76q-59 0 -94 -26t-35 -75t28 -73.5t72 -24.5zM582 74q-223 0 -359.5 122.5t-136.5 325.5q0 112 40 198.5t110.5 139t160 79t193.5 26.5h88v129q0 86 -64 86q-30 0 -46.5 -22.5t-16.5 -57.5q0 -28 6 -58h-418q-8 40 -8 74
q0 88 28.5 163t84.5 132.5t147 90t207 32.5q130 0 223.5 -40.5t146 -114t76 -163t23.5 -200.5v-51h201v551h577v-347h-159v-1169h-418v625h-201v-58q0 -230 -123.5 -361.5t-361.5 -131.5z" />
    <glyph glyph-name="dvMA" unicode="&#x92e;" horiz-adv-x="1800" 
d="M557 426q54 0 80.5 33t26.5 86v80h-78q-58 0 -92.5 -26t-34.5 -75t27 -73.5t71 -24.5zM1245 965v204h-192v-204h192zM-23 1169v347h1846v-347h-158v-1169h-420v625h-192v-58q0 -230 -125 -361.5t-363 -131.5q-223 0 -358 122t-135 326q0 112 40 198.5t109.5 139t158.5 79
t193 26.5h91v204h-687z" />
    <glyph glyph-name="dvYA" unicode="&#x92f;" horiz-adv-x="1574" 
d="M750 475q132 0 202 82t70 211v401h-227v-141q0 -332 -283 -385q8 -71 71 -119.5t167 -48.5zM-23 1169v347h1620v-347h-157v-1169h-418v248q-135 -119 -365 -119q-267 0 -415 156t-148 422q0 59 10 141h17q68 0 116.5 14.5t76.5 37t44 58t20.5 69t4.5 79.5v63h-406z" />
    <glyph glyph-name="dvRA" unicode="&#x930;" horiz-adv-x="1081" 
d="M-23 1169v347h1127v-347h-129v-53q0 -91 -12 -165.5t-43.5 -145.5t-82 -120t-132 -81.5t-189.5 -38.5v-157q0 -72 55 -72q26 0 40 20.5t14 51.5v67h399q2 -25 2 -53q0 -202 -117.5 -321t-328.5 -119q-114 0 -206 34.5t-151 95.5t-90 141.5t-31 174.5v469h201
q77 0 128.5 16t78 47.5t37 68t10.5 87.5v53h-580z" />
    <glyph glyph-name="dvRxA" unicode="&#x931;" horiz-adv-x="1081" 
d="M-23 1169v347h1127v-347h-129v-53q0 -91 -12 -165.5t-43.5 -145.5t-82 -120t-132 -81.5t-189.5 -38.5v-157q0 -72 55 -72q26 0 40 20.5t14 51.5v67h399q2 -25 2 -53q0 -202 -117.5 -321t-328.5 -119q-114 0 -206 34.5t-151 95.5t-90 141.5t-31 174.5v469h201
q77 0 128.5 16t78 47.5t37 68t10.5 87.5v53h-580zM213 -504q-97 0 -164 67t-67 163q0 98 67 166.5t164 68.5q98 0 165.5 -68.5t67.5 -166.5q0 -96 -67.5 -163t-165.5 -67z" />
    <glyph glyph-name="dvLA" unicode="&#x932;" horiz-adv-x="1884" 
d="M1241 10q-39 0 -72 2v363q36 -4 54 -4q65 0 108 42.5t43 121.5q0 68 -34.5 107.5t-96.5 39.5q-68 0 -98.5 -47t-30.5 -111v-59h-344v59q0 64 -30.5 111t-98.5 47q-62 0 -96.5 -39.5t-34.5 -107.5q0 -79 43.5 -121.5t108.5 -42.5q13 0 53 4v-363q-33 -2 -72 -2
q-132 0 -238 39.5t-175.5 110t-106.5 168t-37 213.5q0 105 28 191t75 144t110.5 97.5t133.5 57.5t145 18q251 0 360 -193h6q76 135 225 176v137h-1192v347h1930v-347h-328v-192q101 -61 160 -170t59 -266q0 -116 -37 -213.5t-106.5 -168t-175.5 -110t-238 -39.5z" />
    <glyph glyph-name="dvLLA" unicode="&#x933;" horiz-adv-x="1921" 
d="M627 408q57 0 94 36t37 95q0 57 -37.5 94t-93.5 37q-60 0 -96.5 -37t-36.5 -96t37 -94t96 -35zM1294 408q59 0 96 35t37 94t-36.5 96t-96.5 37q-57 0 -94 -37t-37 -94q0 -59 36.5 -95t94.5 -36zM1358 53q-125 0 -228.5 52t-162.5 155h-13q-59 -103 -162.5 -155
t-228.5 -52q-130 0 -237.5 57t-173.5 169t-66 260q0 145 65.5 256.5t173 169t238.5 57.5q259 0 393 -205h9q90 141 239 184v168h-1227v347h1967v-347h-336v-213q105 -61 166 -168t61 -249q0 -148 -66 -260t-173.5 -169t-237.5 -57z" />
    <glyph glyph-name="dvVA" unicode="&#x935;" horiz-adv-x="1355" 
d="M657 416q70 0 114 44.5t44 112.5t-44 111t-114 43q-73 0 -117 -45t-44 -111t44 -110.5t117 -44.5zM1378 1169h-155v-1169h-408v195q-102 -111 -276 -111q-108 0 -195 39t-142.5 107t-85.5 158t-30 194q0 135 50.5 241.5t155 171t247.5 64.5q172 0 276 -107v217h-838v347
h1401v-347z" />
    <glyph glyph-name="dvSHA" unicode="&#x936;" horiz-adv-x="1806" 
d="M633 -12q-243 0 -385 132t-142 359v416h277q67 0 119.5 7.5t102.5 26.5t78 58.5t28 97.5q0 38 -18 63.5t-54 25.5q-38 0 -57 -26t-19 -69v-55h-416q-4 46 -4 70q0 195 134.5 317.5t361.5 122.5q225 0 360.5 -124.5t135.5 -350.5q0 -131 -46.5 -231t-128.5 -160.5
t-187 -90.5t-230 -30h-15v-92q0 -111 95 -111q41 0 63.5 27.5t22.5 70.5v35h405q2 -23 2 -41q0 -213 -129.5 -330.5t-353.5 -117.5zM1249 0v1516h580v-347h-156v-1169h-424z" />
    <glyph glyph-name="dvSSA" unicode="&#x937;" horiz-adv-x="1454" 
d="M702 596q132 0 185 104l-367 207v-98q0 -93 46.5 -153t135.5 -60zM909 946v223h-385zM-23 1169v347h1500v-347h-158v-1169h-410v346q-105 -100 -297 -100q-119 0 -214 44.5t-156 122.5t-93 182t-32 226v348h-140z" />
    <glyph glyph-name="dvSA" unicode="&#x938;" horiz-adv-x="1708" 
d="M903 1065q0 -98 -22 -174h274v278h-252v-104zM-23 1169v347h1754v-347h-158v-1169h-418v551h-639v-139q0 -32 16.5 -54t49.5 -22q31 0 46 20.5t15 51.5v26h401q3 -35 3 -51q0 -185 -121 -293t-336 -108q-117 0 -210.5 35.5t-153.5 97t-92 142.5t-32 175v414h129
q77 0 129 16t78.5 47.5t36.5 68t10 87.5v104h-508z" />
    <glyph glyph-name="dvHA" unicode="&#x939;" horiz-adv-x="1196" 
d="M1128 176q-12 -195 -151.5 -305.5t-353.5 -110.5q-235 0 -379 131t-144 357q0 224 166 348q-119 82 -119 227q0 117 87 190.5t243 73.5h98v82h-598v347h1242v-347h-246v-374h-342q-31 0 -50.5 -14.5t-19.5 -43.5q0 -20 12 -35q30 3 60 3q229 0 353 -110t142 -300h-399
q-6 36 -35 59t-71 23q-44 0 -79.5 -34.5t-35.5 -100.5q0 -70 34.5 -105t80.5 -35q39 0 68 20t38 54h399z" />
    <glyph glyph-name="dvNukta" unicode="&#x93c;" horiz-adv-x="0" 
d="M-481 -686q-97 0 -164.5 67t-67.5 162q0 98 67.5 167t164.5 69q98 0 165.5 -68.5t67.5 -167.5q0 -96 -67.5 -162.5t-165.5 -66.5z" />
    <glyph glyph-name="dvAvagraha" unicode="&#x93d;" horiz-adv-x="1249" 
d="M92 76v348h486q69 0 69 47q0 24 -23 50t-60 53.5t-82 59t-90 73.5t-82 90.5t-60 115t-23 142.5q0 153 100.5 237t268.5 84h498v-350h-392q-49 0 -49 -37q0 -23 23 -48t60 -51.5t82 -58t90 -73t82 -90t60 -116t23 -144.5q0 -157 -108.5 -244.5t-276.5 -87.5h-596z" />
    <glyph glyph-name="dvmAA" unicode="&#x93e;" 
d="M135 0v1169h-158v347h732v-347h-156v-1169h-418z" />
    <glyph glyph-name="dvmI" unicode="&#x93f;" 
d="M553 1169v-1169h-418v1169h-158v347h160q9 135 71.5 250.5t172 203t277 137.5t374.5 50q215 0 388.5 -55.5t283.5 -151t168.5 -220.5t58.5 -268v-37h-418v29q0 168 -136 266.5t-345 98.5q-129 0 -232.5 -35t-170 -104.5t-78.5 -163.5h158v-347h-156z" />
    <glyph glyph-name="dvmII" unicode="&#x940;" 
d="M-553 1425v142q0 134 30 239t94 185t173.5 123t259.5 43q549 0 549 -590v-51h156v-347h-156v-1169h-418v1169h-158v347h170v71q0 31 -1.5 54.5t-10 56.5t-22.5 54.5t-42 37.5t-67 16q-50 0 -83 -21.5t-46.5 -59.5t-17.5 -68t-4 -70v-162h-406z" />
    <glyph glyph-name="dvmU" unicode="&#x941;" horiz-adv-x="0" 
d="M-451 -748q-86 0 -164.5 15.5t-153.5 53t-129.5 94t-87.5 145t-32 198.5h369q-1 -95 49 -138.5t139 -43.5q67 0 102 27t35 75q0 49 -35.5 78t-105.5 29h-88v321h88q244 0 369 -112t125 -320q0 -195 -130 -308.5t-350 -113.5z" />
    <glyph glyph-name="dvmUU" unicode="&#x942;" horiz-adv-x="0" 
d="M-410 -709q-86 0 -161.5 24t-135.5 71t-94.5 124t-34.5 175q0 192 133.5 299.5t346.5 107.5q139 0 244 -39.5t166.5 -101.5t100 -150.5t51.5 -172.5t13 -181q0 -51 -4 -145h-338v157q0 165 -55.5 245.5t-186.5 80.5q-56 0 -97.5 -24.5t-41.5 -77.5q0 -50 36 -73.5
t87 -23.5h47v-295h-76z" />
    <glyph glyph-name="dvmvR" unicode="&#x943;" horiz-adv-x="0" 
d="M-279 -721q-73 0 -140.5 13t-132 44t-112 77.5t-76 119t-28.5 162.5q0 185 127.5 294t355.5 109q104 0 150 -4v-278h-113q-58 0 -88.5 -28.5t-30.5 -76.5q0 -102 158 -102q75 0 182 29v-322q-118 -37 -252 -37z" />
    <glyph glyph-name="dvmvRR" unicode="&#x944;" horiz-adv-x="0" 
d="M-199 -1030q-92 0 -174 18.5t-152 57t-111.5 108t-41.5 162.5q0 97 59.5 167.5t157.5 94.5v8q-215 50 -215 244q0 59 23 107t59 77t83 49t92.5 27.5t90.5 7.5h193v-221h-25q-56 0 -86 -14.5t-30 -52.5q0 -68 116 -68h131v-305h-104q-69 0 -107.5 -15t-38.5 -61
q0 -23 13 -38.5t37 -22.5t45.5 -9t50.5 -2q101 0 213 31v-307q-107 -43 -279 -43z" />
    <glyph glyph-name="dvmEcandra" unicode="&#x945;" horiz-adv-x="0" 
d="M-365 1653q-271 0 -403.5 125.5t-132.5 351.5h356q0 -81 43.5 -126.5t136.5 -45.5q92 0 136.5 46t44.5 126h356q0 -226 -133.5 -351.5t-403.5 -125.5z" />
    <glyph glyph-name="dvmE" unicode="&#x947;" horiz-adv-x="0" 
d="M-528 1505q-42 65 -68 100t-55 65.5t-58.5 43t-65.5 19t-89 6.5h-121v334h115q93 -1 156.5 -8t128 -30t112.5 -59.5t103.5 -102.5t108.5 -152.5t122 -215.5h-389z" />
    <glyph glyph-name="dvmAI" unicode="&#x948;" horiz-adv-x="0" 
d="M-498 1509q-33 17 -78 40.5t-56 30.5t-42 18.5t-38.5 13t-43 5t-57.5 3.5h-80h-125v256h115q145 0 203.5 -12t136.5 -68q-35 53 -69 88t-60 53t-63.5 27t-60.5 10.5t-69 1.5h-133v258h123q73 0 116 -2t95 -14.5t83 -29.5t76 -57.5t77.5 -87t84.5 -130t100.5 -174
t121.5 -230.5h-357z" />
    <glyph glyph-name="dvmOcandra" unicode="&#x949;" horiz-adv-x="690" 
d="M137 0v1169h-157v347h731v-347h-156v-1169h-418zM344 1653q-272 0 -404.5 125.5t-132.5 351.5h357q0 -81 43.5 -126.5t136.5 -45.5q92 0 136 46t44 126h357q0 -226 -133.5 -351.5t-403.5 -125.5z" />
    <glyph glyph-name="dvmO" unicode="&#x94b;" horiz-adv-x="688" 
d="M553 0h-418v1169h-158v347h177q-51 77 -80.5 114.5t-67.5 65.5t-77.5 35.5t-104.5 7.5h-121v334h115q93 -1 157 -8t127.5 -29.5t111 -58.5t102.5 -100.5t107.5 -149.5t119.5 -211h166v-347h-156v-1169z" />
    <glyph glyph-name="dvmAU" unicode="&#x94c;" 
d="M553 0h-418v1169h-158v347h187q-27 14 -63.5 34t-52 26.5t-35.5 17.5t-36 13.5t-31 7t-43 4.5t-50 0.5t-72 0.5h-125v256h115q145 0 203.5 -12t136.5 -68q-35 53 -69 88t-60 53t-63.5 27t-60.5 10.5t-69 1.5h-133v258h123q73 0 116 -2t95 -14.5t82.5 -29t75.5 -57t77 -86
t83.5 -128.5t99.5 -172.5t120 -228.5h181v-347h-156v-1169z" />
    <glyph glyph-name="dvVirama" unicode="&#x94d;" horiz-adv-x="0" 
d="M-270 -592l-275 488h414l285 -488h-424z" />
    <glyph glyph-name="dvOm" unicode="&#x950;" horiz-adv-x="2215" 
d="M621 18q-229 0 -362.5 121t-133.5 320h389q0 -34 21.5 -59t60.5 -25q40 0 62 24.5t22 63.5q0 47 -33 75.5t-96 28.5h-100v351h100q52 0 85.5 22.5t33.5 69.5q0 36 -20.5 58t-53.5 22q-35 0 -55.5 -22t-20.5 -56h-385q0 193 127.5 312.5t341.5 119.5q205 0 324 -103.5
t119 -277.5q0 -106 -52 -185t-145 -118v-8q1 0 3 -1t3 -1h113q103 0 140.5 34.5t37.5 139.5q0 235 107.5 352t357.5 117q248 0 363.5 -128.5t115.5 -377.5v-230q0 -308 -152 -472.5t-423 -164.5q-96 0 -213 21v344q102 -12 135 -12q140 0 194 77t54 222v272q0 96 -74 96
q-76 0 -76 -120q0 -135 -21.5 -223.5t-75.5 -150.5t-145 -90t-231 -30v-6q0 -184 -123 -293t-319 -109zM1133 1462q-260 0 -398.5 122t-138.5 355h330q0 -81 56.5 -131.5t150.5 -50.5t149 50.5t55 131.5h334q0 -233 -139 -355t-399 -122zM1130 1835q-60 0 -103.5 43.5
t-43.5 106.5t43.5 107t103.5 44q64 0 107 -44t43 -107t-43 -106.5t-107 -43.5z" />
    <glyph glyph-name="dvKxA" unicode="&#x958;" horiz-adv-x="1937" 
d="M786 0v205q-96 -117 -286 -117q-193 0 -303.5 134.5t-110.5 346.5q0 217 112.5 349.5t317.5 132.5q180 0 270 -107v225h-809v347h1983v-347h-772v-225q90 107 258 107q130 0 223.5 -66t137.5 -171t44 -234q0 -217 -116 -341t-303 -124q-75 0 -146 18v324q12 -4 31 -4
q50 0 80 31t30 85q0 53 -29.5 90t-88.5 37q-58 0 -89.5 -39t-31.5 -110v-547h-402zM444 -465q-97 0 -164 67t-67 162q0 98 67 167t164 69q98 0 166 -69t68 -167q0 -95 -68 -162t-166 -67zM647 438q60 0 99.5 37.5t39.5 95.5q-2 57 -39 92t-98 35q-62 0 -100.5 -36.5
t-38.5 -94.5q0 -57 37 -93t100 -36z" />
    <glyph glyph-name="dvKHxA" unicode="&#x959;" horiz-adv-x="2000" 
d="M1253 195q-25 0 -61 4q-77 -100 -195 -158.5t-268 -58.5q-289 0 -453.5 162.5t-164.5 463.5v223h39q144 0 205 59.5t61 180.5v98h-439v347h2046v-347h-155v-1169h-416v256q-70 -61 -199 -61zM676 -563q-97 0 -164.5 67t-67.5 162q0 98 67.5 167t164.5 69
q98 0 165.5 -68.5t67.5 -167.5q0 -96 -67.5 -162.5t-165.5 -66.5zM1348 510q46 0 75 30.5t29 80.5q-2 46 -28 77t-76 31q-49 0 -80 -28.5t-31 -79.5q0 -54 31 -82.5t80 -28.5zM739 340q116 0 174 66q-47 96 -47 215q0 181 108 301t279 120q124 0 199 -65v192h-616v-157
q0 -190 -83.5 -311t-228.5 -152q3 -91 58.5 -150t156.5 -59z" />
    <glyph glyph-name="dvGxA" unicode="&#x95a;" horiz-adv-x="1757" 
d="M1206 0v1169h-190v-405q0 -107 -28 -194.5t-84 -154t-147.5 -103t-211.5 -36.5q-231 0 -359.5 118t-128.5 349q0 45 2 68h404v-66q0 -56 15.5 -85t53.5 -29q66 0 66 114v424h-621v347h1805v-347h-158v-1169h-418zM543 -276q-97 0 -164.5 67t-67.5 162q0 98 67.5 166.5
t164.5 68.5q98 0 165.5 -68.5t67.5 -166.5q0 -96 -67.5 -162.5t-165.5 -66.5z" />
    <glyph glyph-name="dvJxA" unicode="&#x95b;" horiz-adv-x="1785" 
d="M-23 1169v347h1831v-347h-155v-1169h-418v631h-139q-8 -209 -143 -338t-359 -129q-252 0 -385 133t-133 356v332h420v-319q0 -138 98 -138q94 0 94 138v319h547v184h-1258zM592 -387q-97 0 -164.5 67t-67.5 162q0 98 67.5 167t164.5 69q98 0 165.5 -68.5t67.5 -167.5
q0 -96 -67.5 -162.5t-165.5 -66.5z" />
    <glyph glyph-name="dvDDxA" unicode="&#x95c;" horiz-adv-x="1146" 
d="M-23 1169v347h1192v-347h-192v-383h-389q-29 0 -46.5 -12t-17.5 -33q0 -47 62 -47h90q67 0 126.5 -11.5t115 -38.5t96 -68.5t64.5 -104.5t24 -143q0 -176 -126.5 -276.5t-354.5 -100.5t-379.5 102.5t-163.5 292.5h416q2 -25 14 -42.5t30 -26t35 -12t35 -3.5q43 0 71 18
t28 52q0 71 -109 71h-66q-35 0 -69.5 3t-78 12.5t-81 25t-75 42.5t-63.5 63t-42.5 89t-16.5 118q0 155 104.5 238t272.5 83h90v92h-596zM621 -600q-97 0 -164.5 67t-67.5 162q0 98 67.5 167t164.5 69q98 0 165.5 -68.5t67.5 -167.5q0 -96 -67.5 -162.5t-165.5 -66.5z" />
    <glyph glyph-name="dvDDHxA" unicode="&#x95d;" horiz-adv-x="1359" 
d="M-23 1169v347h1405v-347h-303v-366h-266q-141 0 -232.5 -74t-91.5 -205q0 -118 70 -192t221 -74q96 0 154.5 31.5t58.5 97.5q0 26 -14 41.5t-39 15.5q-24 0 -37.5 -14.5t-13.5 -34.5q0 -16 6 -28h-293q-10 52 -10 88q0 135 99 208.5t267 73.5q184 0 287 -95t103 -255
q0 -204 -147.5 -315t-428.5 -111q-145 0 -269.5 38t-217.5 110t-146 183.5t-53 250.5q0 251 164.5 396.5t425.5 145.5h12v84h-711zM737 -588q-97 0 -164 67t-67 163q0 98 67 166.5t164 68.5q98 0 166 -68.5t68 -166.5q0 -96 -68 -163t-166 -67z" />
    <glyph glyph-name="dvPHxA" unicode="&#x95e;" horiz-adv-x="2015" 
d="M680 629q73 0 112 48.5t39 121.5v370h-296v-370q0 -75 36.5 -122.5t108.5 -47.5zM-23 1169v347h2061v-347h-789v-223q100 105 279 105q128 0 222 -64.5t138.5 -167t44.5 -229.5q0 -222 -116 -348.5t-304 -126.5q-88 0 -161 24v318q24 -6 47 -6q53 0 81.5 34t28.5 84
q0 53 -29.5 90t-88.5 37q-68 0 -105 -49.5t-37 -144.5v-502h-418v367q-98 -88 -262 -88q-144 0 -248 70t-154 186t-50 264v370h-140zM422 -260q-97 0 -164.5 67t-67.5 162q0 98 67.5 167t164.5 69q98 0 165.5 -68.5t67.5 -167.5q0 -96 -67.5 -162.5t-165.5 -66.5z" />
    <glyph glyph-name="dvvRR" unicode="&#x960;" horiz-adv-x="2193" 
d="M948 0v225l-270 -225h-535v16l789 588q-54 90 -174 90q-109 0 -166 -63t-57 -166h-418q0 259 135 419t379 160q197 0 317 -114v239h-971v347h2245v-347h-891v-229h254q47 0 75 21t28 63v47h356v-721h-68q-56 0 -86 -14.5t-30 -52.5q0 -66 116 -66h131v-307h-106
q-32 0 -54.5 -2.5t-44.5 -9.5t-33 -22.5t-11 -39.5q0 -32 25 -49.5t52.5 -21t67.5 -3.5q101 0 213 31v-305q-105 -45 -279 -45q-92 0 -174 19t-152 58t-111.5 108.5t-41.5 162.5q0 96 59.5 167.5t157.5 94.5v8q-215 47 -215 244q0 105 64.5 167t163.5 87v76
q-79 -23 -166 -23h-191v-612h-383z" />
    <glyph glyph-name="dvvLL" unicode="&#x961;" horiz-adv-x="1886" 
d="M-23 1169v347h1932v-347h-385v-153q115 -55 184.5 -170.5t69.5 -290.5q0 -104 -33 -205h-51q-56 0 -87.5 -14.5t-31.5 -52.5q0 -66 119 -66h131v-307h-107q-33 0 -55.5 -2.5t-44.5 -9.5t-33.5 -22.5t-11.5 -39.5t13 -40t37.5 -23t46 -9t50.5 -2q101 0 213 31v-305
q-105 -45 -278 -45q-92 0 -174 19t-152 58t-111.5 108.5t-41.5 162.5q0 96 59.5 167.5t157.5 94.5v8q-215 47 -215 244q0 174 184 240v12q0 65 -32 102t-87 37q-68 0 -98.5 -47t-30.5 -110v-74h-344v74q0 63 -30.5 110t-98.5 47q-62 0 -96.5 -39.5t-34.5 -107.5
q0 -164 152 -164q33 0 53 2v-360q-33 -2 -72 -2q-266 0 -411.5 141.5t-145.5 388.5q0 105 28 191t75 144t110.5 97.5t133.5 57.5t145 18q252 0 354 -195h8q57 110 180 160v141h-1143z" />
    <glyph glyph-name="dvmvL" unicode="&#x962;" horiz-adv-x="0" 
d="M207 -995q-174 0 -279.5 81.5t-105.5 227.5q0 82 45.5 145.5t116.5 96.5v8q0 50 -24.5 79t-65.5 29q-52 0 -74.5 -36t-22.5 -85v-55h-266v55q0 49 -22.5 85t-73.5 36q-49 0 -76 -29.5t-27 -82.5q0 -125 117 -125q25 0 39 4v-281h-53q-203 0 -315.5 109t-112.5 297
q0 99 32.5 176.5t87 122.5t120 67.5t137.5 22.5q191 0 270 -148h6q36 68 109.5 108t173.5 40q56 0 107.5 -13.5t99.5 -44t83.5 -75t56.5 -110.5t21 -146q0 -75 -24 -156h-13q-83 0 -114 -20t-31 -60q0 -33 34 -51t87 -18t92 10v-254q-78 -10 -135 -10z" />
    <glyph glyph-name="dvmvLL" unicode="&#x963;" horiz-adv-x="0" 
d="M420 -1253q-85 -31 -215 -31q-71 0 -132.5 13.5t-115 42.5t-84.5 81.5t-31 124.5q0 77 44.5 131.5t119.5 71.5v4q-73 17 -118.5 63t-45.5 127q0 72 39.5 118t102.5 67v4q0 50 -24.5 79t-65.5 29q-52 0 -74.5 -36t-22.5 -85v-55h-266v55q0 49 -22.5 85t-73.5 36
q-49 0 -76 -29.5t-27 -82.5q0 -125 117 -125q25 0 39 4v-281h-53q-203 0 -315.5 109t-112.5 297q0 99 32.5 176.5t87 122.5t120 67.5t137.5 22.5q191 0 270 -148h6q36 68 109.5 108t173.5 40q56 0 107.5 -13.5t99.5 -44t83.5 -75t56.5 -110.5t21 -146q0 -75 -24 -156h-47
q-93 0 -93 -51q0 -49 95 -49h96v-236h-80q-27 0 -44 -1.5t-34.5 -7t-26 -18t-8.5 -32.5q0 -17 10 -28.5t28.5 -16.5t35 -6.5t39.5 -1.5q78 0 162 22v-235z" />
    <glyph glyph-name="danda" unicode="&#x964;" horiz-adv-x="784" 
d="M702 1516v-1516h-413v1516h413z" />
    <glyph glyph-name="doubledanda" unicode="&#x965;" horiz-adv-x="1423" 
d="M702 1516v-1516h-413v1516h413zM1341 1516v-1516h-415v1516h415z" />
    <glyph glyph-name="dvZero" unicode="&#x966;" horiz-adv-x="1355" 
d="M66 770q0 137 22 251.5t69.5 209.5t118.5 161t173.5 102t230.5 36q127 0 229.5 -36t173.5 -102t119 -161t70 -209.5t22 -251.5q0 -173 -36 -310t-108.5 -239.5t-191.5 -157.5t-278 -55q-128 0 -230.5 36t-173.5 102t-118.5 161t-69.5 210t-22 253zM846 770q0 62 -3 106.5
t-13 89.5t-28 72.5t-48.5 44.5t-73.5 17q-54 0 -89 -24t-51.5 -73t-22 -101.5t-5.5 -131.5q0 -63 3 -107.5t13 -90t28 -72.5t49 -44.5t75 -17.5q43 0 73.5 17t48.5 44.5t28 73t13 90t3 107.5z" />
    <glyph glyph-name="dvOne" unicode="&#x967;" horiz-adv-x="817" 
d="M238 0v1071h-218v426h695v-1497h-477z" />
    <glyph glyph-name="dvTwo" unicode="&#x968;" horiz-adv-x="1159" 
d="M57 20v342q100 75 174.5 135t158 137t137 142t89 137t35.5 134q0 49 -21 75.5t-57 26.5q-40 0 -63.5 -42t-17.5 -128h-441q4 116 36 209.5t83.5 156.5t121.5 105t147.5 61t164.5 19q135 0 235.5 -36t158 -100t85 -142t27.5 -171q0 -107 -38 -211.5t-105 -192t-147 -159.5
t-173 -131h469v-367h-1059z" />
    <glyph glyph-name="dvThree" unicode="&#x969;" horiz-adv-x="1259" 
d="M92 1028q6 244 142 373t387 129q240 0 373.5 -118t133.5 -300q0 -76 -21 -137t-56 -99.5t-70 -62t-72 -35.5v-8q246 -92 246 -342q0 -200 -136 -321t-370 -121q-129 0 -231 29.5t-179 91t-119 163.5t-44 240h442q-9 -150 111 -150q37 0 61.5 28t24.5 73q0 58 -38 87.5
t-128 29.5h-76v366h74q139 -8 139 111q0 52 -21.5 76t-54.5 24q-75 0 -75 -127h-443z" />
    <glyph glyph-name="dvFour" unicode="&#x96a;" horiz-adv-x="1441" 
d="M748 0v225h-642v379l611 871h489v-857h148v-393h-148v-225h-458zM563 618h221v338z" />
    <glyph glyph-name="dvFive" unicode="&#x96b;" horiz-adv-x="1351" 
d="M193 1497h1003v-399h-594v-172q81 75 242 75q85 0 156 -25.5t120 -70.5t83.5 -106.5t50.5 -132t16 -148.5q0 -246 -137.5 -382t-380.5 -136q-265 0 -416 133t-146 346h443q0 -33 22 -61.5t74 -28.5q100 0 100 137q0 60 -27.5 90.5t-78.5 30.5q-43 0 -65.5 -20t-22.5 -47
h-442v917z" />
    <glyph glyph-name="dvSix" unicode="&#x96c;" horiz-adv-x="1296" 
d="M1171 1042h-423q-11 61 -35.5 90t-73.5 29q-41 0 -67 -21.5t-39.5 -67t-18 -99t-4.5 -135.5q38 57 107 90t157 33q197 0 314.5 -122t117.5 -350q0 -232 -142 -367.5t-386 -135.5q-135 0 -237 38.5t-165 103.5t-102 163t-53.5 205t-14.5 241q0 414 132.5 600.5
t429.5 186.5q102 0 185 -27t139.5 -72.5t96 -108.5t59 -131t23.5 -143zM662 612q-55 0 -88 -30t-33 -86q0 -121 121 -121q120 0 120 121q0 56 -32.5 86t-87.5 30z" />
    <glyph glyph-name="dvSeven" unicode="&#x96d;" horiz-adv-x="1048" 
d="M37 1497h991v-334l-467 -1163h-467l471 1108h-528v389z" />
    <glyph glyph-name="dvEight" unicode="&#x96e;" horiz-adv-x="1345" 
d="M305 823q-174 99 -174 307q0 81 33 152t97 127t170 88.5t241 32.5t241 -32.5t170 -88.5t96.5 -127t32.5 -152q0 -208 -174 -307q207 -121 207 -362q0 -94 -30.5 -173.5t-84 -136t-126 -96.5t-156.5 -59t-176 -19q-115 0 -217.5 31t-182.5 89.5t-127 152.5t-47 211
q0 241 207 362zM672 934q41 0 67.5 30.5t26.5 90.5q0 57 -26.5 91t-67.5 34t-67.5 -34t-26.5 -91q0 -60 26.5 -90.5t67.5 -30.5zM672 629q-61 0 -97 -39.5t-36 -102.5q0 -61 35 -100t98 -39t98 39t35 100q0 63 -36 102.5t-97 39.5z" />
    <glyph glyph-name="dvNine" unicode="&#x96f;" horiz-adv-x="1222" 
d="M96 467h424q11 -60 38 -89.5t77 -29.5q40 0 65.5 21t37.5 68t16 99t4 136q-38 -57 -107 -90t-157 -33q-195 0 -314 122.5t-119 354.5q0 231 143.5 367.5t385.5 136.5q136 0 237.5 -36.5t165 -98.5t103 -157.5t54.5 -201t15 -239.5q0 -159 -17 -282.5t-56 -224.5
t-101 -167t-153.5 -101.5t-212.5 -35.5q-123 0 -223.5 41t-164 109.5t-100 153t-41.5 177.5zM606 897q55 0 88 30.5t33 86.5q0 121 -121 121t-121 -121q0 -56 33 -86.5t88 -30.5z" />
    <glyph glyph-name="dvAbbreviationsign" unicode="&#x970;" horiz-adv-x="952" 
d="M479 1024q158 0 257.5 -98.5t99.5 -253.5q0 -154 -99.5 -252t-257.5 -98q-160 0 -261 98t-101 252q0 155 101 253.5t261 98.5zM479 780q-50 0 -82 -30.5t-32 -77.5t32 -77t82 -30q46 0 76.5 30t30.5 77t-30.5 77.5t-76.5 30.5z" />
    <glyph glyph-name="dvAcandra" unicode="&#x972;" horiz-adv-x="1744" 
d="M530 1010q51 0 85 22.5t34 67.5q0 37 -20 59.5t-54 22.5t-54.5 -22.5t-20.5 -55.5h-383q0 191 124 310.5t334 119.5q204 0 323.5 -103t119.5 -276q0 -106 -51.5 -183t-143.5 -116v-8q61 -19 99 -51h260v719h573v-347h-158v-1169h-415v455h-152q-25 -152 -139 -239
t-287 -87q-228 0 -364 121.5t-136 320.5h390q0 -35 22 -60.5t62 -25.5q39 0 60 24.5t21 63.5q0 46 -33.5 74.5t-95.5 28.5h-100v334h100zM1405 1667q-272 0 -404.5 125.5t-132.5 351.5h357q0 -81 43.5 -126.5t136.5 -45.5q92 0 136 46t44 126h357q0 -226 -133.5 -351.5
t-403.5 -125.5z" />
    <glyph glyph-name="Wgrave" unicode="&#x1e80;" horiz-adv-x="2252" 
d="M393 0l-332 1450h490l131 -913l197 913h495l197 -913l131 913h489l-331 -1450h-566l-168 823l-168 -823h-565zM862 1720v336l531 -225v-303z" />
    <glyph glyph-name="wgrave" unicode="&#x1e81;" horiz-adv-x="1849" 
d="M270 0l-272 1155h451l96 -702l149 702h486l157 -711l99 711h419l-274 -1155h-512l-139 651l-148 -651h-512zM662 1425v336l530 -225v-303z" />
    <glyph glyph-name="Wacute" unicode="&#x1e82;" horiz-adv-x="2252" 
d="M393 0l-332 1450h490l131 -913l197 913h495l197 -913l131 913h489l-331 -1450h-566l-168 823l-168 -823h-565zM862 1831l531 225v-336l-531 -192v303z" />
    <glyph glyph-name="wacute" unicode="&#x1e83;" horiz-adv-x="1849" 
d="M270 0l-272 1155h451l96 -702l149 702h486l157 -711l99 711h419l-274 -1155h-512l-139 651l-148 -651h-512zM662 1536l530 225v-336l-530 -192v303z" />
    <glyph glyph-name="Wdieresis" unicode="&#x1e84;" horiz-adv-x="2252" 
d="M393 0l-332 1450h490l131 -913l197 913h495l197 -913l131 913h489l-331 -1450h-566l-168 823l-168 -823h-565zM895 1565q-73 0 -123.5 50.5t-50.5 123.5q0 76 50 127t124 51q77 0 127.5 -50.5t50.5 -127.5q0 -74 -51 -124t-127 -50zM1356 1565q-74 0 -124 50.5t-50 123.5
q0 76 50 127t124 51q76 0 127 -50.5t51 -127.5q0 -74 -51 -124t-127 -50z" />
    <glyph glyph-name="wdieresis" unicode="&#x1e85;" horiz-adv-x="1849" 
d="M270 0l-272 1155h451l96 -702l149 702h486l157 -711l99 711h419l-274 -1155h-512l-139 651l-148 -651h-512zM694 1270q-74 0 -124 50t-50 124q0 76 50 127t124 51q76 0 127 -51t51 -127q0 -74 -51 -124t-127 -50zM1155 1270q-73 0 -123.5 50t-50.5 124q0 76 50 127
t124 51q77 0 127.5 -51t50.5 -127q0 -74 -51 -124t-127 -50z" />
    <glyph glyph-name="uni1EBC" unicode="&#x1ebc;" horiz-adv-x="1138" 
d="M1069 1450v-363h-512v-178h451v-342h-451v-205h512v-362h-967v1450h967zM98 1534q33 190 116 275t214 85q57 0 113 -23.5t102.5 -47t79.5 -23.5q75 0 90 96h223q-33 -190 -115.5 -274t-213.5 -84q-57 0 -113 23t-102.5 46t-79.5 23q-76 0 -93 -96h-221z" />
    <glyph glyph-name="uni1EBD" unicode="&#x1ebd;" horiz-adv-x="1261" 
d="M631 813q-122 0 -142 -117h271q0 57 -37 87t-92 30zM1196 416q-37 -187 -193.5 -308.5t-371.5 -121.5q-263 0 -426.5 159.5t-163.5 432.5q0 181 75.5 316t208.5 205t306 70q263 0 426.5 -156.5t163.5 -424.5q0 -39 -7 -90h-729q8 -150 123 -150q76 0 107 68h481z
M152 1247q33 190 115.5 275.5t213.5 85.5q57 0 113 -24t102.5 -47.5t79.5 -23.5q75 0 90 97h224q-33 -190 -116 -274.5t-214 -84.5q-57 0 -113 23t-102.5 46t-79.5 23q-75 0 -92 -96h-221z" />
    <glyph glyph-name="Ygrave" unicode="&#x1ef2;" horiz-adv-x="1495" 
d="M520 440l-520 1010h520l232 -514l231 514h512l-520 -1010v-440h-455v440zM481 1726v336l531 -225v-303z" />
    <glyph glyph-name="ygrave" unicode="&#x1ef3;" horiz-adv-x="1386" 
d="M702 569l203 586h502l-739 -1708h-498l291 610l-481 1098h505zM426 1425v336l530 -225v-303z" />
    <glyph glyph-name="uni1EF8" unicode="&#x1ef8;" horiz-adv-x="1495" 
d="M520 440l-520 1010h520l232 -514l231 514h512l-520 -1010v-440h-455v440zM270 1534q33 190 116 275t214 85q57 0 113 -23.5t102.5 -47t79.5 -23.5q75 0 90 96h223q-33 -190 -115.5 -274t-213.5 -84q-57 0 -113 23t-102.5 46t-79.5 23q-75 0 -92 -96h-222z" />
    <glyph glyph-name="uni1EF9" unicode="&#x1ef9;" horiz-adv-x="1386" 
d="M702 569l203 586h502l-739 -1708h-498l291 610l-481 1098h505zM215 1233q33 190 116 275t214 85q57 0 113 -23.5t102.5 -47t79.5 -23.5q75 0 90 96h223q-33 -190 -115.5 -274t-214.5 -84q-57 0 -113 23t-102.5 46t-79.5 23q-75 0 -92 -96h-221z" />
    <glyph glyph-name="zerowidthnonjoiner" unicode="&#x200c;" horiz-adv-x="0" 
d="M49 -471h-96v2132h96v-2132z" />
    <glyph glyph-name="zerowidthjoiner" unicode="&#x200d;" horiz-adv-x="0" 
d="M262 1214l-67 -67l-148 153v-1771h-96v1771l-141 -149l-68 68l190 190l-194 195l67 67l195 -194l197 194l65 -65l-196 -197z" />
    <glyph glyph-name="endash" unicode="&#x2013;" horiz-adv-x="1398" 
d="M113 512v375h1173v-375h-1173z" />
    <glyph glyph-name="emdash" unicode="&#x2014;" horiz-adv-x="1916" 
d="M113 512v375h1691v-375h-1691z" />
    <glyph glyph-name="quoteleft" unicode="&#x2018;" horiz-adv-x="774" 
d="M344 1450h299l-90 -604h-451z" />
    <glyph glyph-name="quoteright" unicode="&#x2019;" horiz-adv-x="774" 
d="M430 846h-299l90 604h451z" />
    <glyph glyph-name="quotesinglbase" unicode="&#x201a;" horiz-adv-x="565" 
d="M66 -330l118 750h451l-270 -750h-299z" />
    <glyph glyph-name="quotedblleft" unicode="&#x201c;" horiz-adv-x="1327" 
d="M344 1450h299l-90 -604h-451zM897 1450h299l-90 -604h-451z" />
    <glyph glyph-name="quotedblright" unicode="&#x201d;" horiz-adv-x="1327" 
d="M983 846h-299l90 604h451zM430 846h-299l90 604h451z" />
    <glyph glyph-name="quotedblbase" unicode="&#x201e;" horiz-adv-x="1425" 
d="M66 -330l118 750h451l-270 -750h-299zM778 -330l119 750h451l-271 -750h-299z" />
    <glyph glyph-name="dagger" unicode="&#x2020;" horiz-adv-x="1468" 
d="M915 1124l449 31v-340l-449 31l46 -1399h-455l43 1399l-445 -31v340l445 -31l-43 502h455z" />
    <glyph glyph-name="daggerdbl" unicode="&#x2021;" horiz-adv-x="1466" 
d="M1364 1155v-340l-449 31v-619l449 33v-342l-449 31l43 -502h-454l45 502l-447 -31v342l447 -33v619l-447 -31v340l447 -31l-45 502h454l-43 -502z" />
    <glyph glyph-name="bullet" unicode="&#x2022;" horiz-adv-x="1097" 
d="M549 340q-145 0 -244.5 98.5t-99.5 243.5q0 146 99.5 246t244.5 100q146 0 245 -100t99 -246q0 -145 -99 -243.5t-245 -98.5z" />
    <glyph glyph-name="ellipsis" unicode="&#x2026;" horiz-adv-x="1779" 
d="M1151 207q0 -96 -71 -159.5t-189 -63.5q-119 0 -190.5 63.5t-71.5 159.5q0 98 71.5 162.5t190.5 64.5q117 0 188.5 -64.5t71.5 -162.5zM1714 207q0 -96 -71 -159.5t-189 -63.5q-119 0 -190.5 63.5t-71.5 159.5q0 98 71.5 162.5t190.5 64.5q117 0 188.5 -64.5t71.5 -162.5
zM588 207q0 -96 -71 -159.5t-189 -63.5q-119 0 -190.5 63.5t-71.5 159.5q0 98 71.5 162.5t190.5 64.5q117 0 188.5 -64.5t71.5 -162.5z" />
    <glyph glyph-name="perthousand" unicode="&#x2030;" horiz-adv-x="2629" 
d="M41 1106q0 181 102.5 276t268.5 95q164 0 265 -95t101 -276q0 -179 -101 -274t-265 -95q-165 0 -268 95t-103 274zM408 1212q-70 0 -70 -106q0 -105 70 -105q75 0 75 105q0 106 -75 106zM319 0l764 1456h435l-764 -1456h-435zM1059 350q0 181 102 276t266 95
q165 0 266 -95t101 -276t-101 -275.5t-266 -94.5q-164 0 -266 94.5t-102 275.5zM1425 457q-71 0 -71 -107q0 -106 71 -106q35 0 54.5 26.5t19.5 79.5q0 52 -20 79.5t-54 27.5zM1851 350q0 181 102.5 276t268.5 95q164 0 265.5 -95t101.5 -276t-101.5 -275.5t-265.5 -94.5
q-166 0 -268.5 94.5t-102.5 275.5zM2218 457q-70 0 -70 -107q0 -106 70 -106q76 0 76 106q0 52 -20 79.5t-56 27.5z" />
    <glyph glyph-name="guilsinglleft" unicode="&#x2039;" horiz-adv-x="763" 
d="M500 604l162 -358h-412l-158 358l158 359h412z" />
    <glyph glyph-name="guilsinglright" unicode="&#x203a;" horiz-adv-x="763" 
d="M516 246h-414l164 358l-164 359h414l156 -359z" />
    <glyph glyph-name="fraction" unicode="&#x2044;" horiz-adv-x="1136" 
d="M-55 0l764 1456h434l-764 -1456h-434z" />
    <glyph glyph-name="rupee" unicode="&#x20a8;" horiz-adv-x="2516" 
d="M868 946q0 57 -34 90t-97 33h-180v-246h180q131 0 131 123zM102 1450h676q133 0 239.5 -36.5t173.5 -101.5t102.5 -150.5t35.5 -186.5q0 -146 -80.5 -258t-232.5 -162l315 -555h-500l-274 520v-520h-455v1450zM1380 805q0 156 131 260t367 104q129 0 232.5 -31.5
t174.5 -88t115 -130.5t62 -163h-445q-21 78 -145 78q-90 0 -90 -46q0 -25 38 -41t99 -27t135 -23.5t148 -36.5t135 -59.5t99 -98.5t38 -148q0 -160 -128 -264t-355 -104q-254 0 -409 106.5t-189 306.5h444q10 -80 148 -80q79 0 79 46q0 24 -29.5 40.5t-77.5 25t-109.5 20
t-125.5 23.5t-125.5 38t-109.5 61t-77.5 95t-29.5 137z" />
    <glyph glyph-name="Euro" unicode="&#x20ac;" horiz-adv-x="1617" 
d="M137 727v33h-106v205h137q63 231 242.5 365t443.5 134q283 0 470 -155.5t232 -415.5h-479q-32 72 -93 111.5t-138 39.5q-109 0 -176 -79h254v-205h-326v-33v-25h326v-202h-262q68 -90 184 -90q77 0 138 39.5t93 111.5h479q-45 -260 -232 -415.5t-470 -155.5
q-267 0 -447 137.5t-241 372.5h-135v202h106v25z" />
    <glyph glyph-name="indianrupee" unicode="&#x20b9;" horiz-adv-x="1181" 
d="M61 1153v297h1059v-297h-119v-68h119v-254h-129q-16 -79 -53.5 -144.5t-98 -118t-151.5 -82t-203 -29.5v-39q0 -101 70 -101q39 0 53.5 26t14.5 89h419q-13 -207 -130 -329.5t-337 -122.5q-250 0 -382 124t-132 392v252q288 0 384.5 13.5t119.5 69.5h-504v254h517v68
h-517z" />
    <glyph glyph-name="uni20BA" unicode="&#x20ba;" horiz-adv-x="1677" 
d="M694 1458v-287l221 33v-264l-221 -31v-69l230 32v-266l-230 -31v-139q67 -14 160 -14q63 0 113 11.5t85 38.5t60.5 53.5t41 74.5t24.5 82t12.5 95.5t4.5 96.5t1 102v9h461q0 -268 -42 -451.5t-137.5 -305.5t-246.5 -177t-373 -55q-248 0 -625 67v447l-213 -29v264l213 31
v68l-213 -31v256l213 33v356h461z" />
    <glyph glyph-name="uni20BD" unicode="&#x20bd;" horiz-adv-x="1452" 
d="M680 1110v-225h151q57 0 88 30t31 82q0 46 -32 79.5t-87 33.5h-151zM20 541v344h205v565h635q266 0 408.5 -125t142.5 -330t-142.5 -329.5t-408.5 -124.5h-180v-84h233v-338h-233v-119h-455v119h-205v338h205v84h-205z" />
    <glyph glyph-name="uni2113" unicode="&#x2113;" horiz-adv-x="659" 
d="M102 0v1516h455v-1516h-455z" />
    <glyph glyph-name="trademark" unicode="&#x2122;" horiz-adv-x="1939" 
d="M61 1190v260h668v-260h-176v-457h-315v457h-177zM821 733v717h432l103 -320l129 320h393v-717h-289l-6 342l-139 -342h-211l-137 369v-369h-275z" />
    <glyph glyph-name="uni2126" unicode="&#x2126;" horiz-adv-x="1619" 
d="M68 793q0 161 57.5 291.5t158 215t235.5 130t292 45.5q156 0 291 -45.5t236 -130t158.5 -215t57.5 -291.5q0 -145 -36.5 -255.5t-128.5 -195.5h165v-342h-546v352q43 108 63.5 191t20.5 184q0 161 -72 244.5t-209 83.5q-136 0 -209.5 -83.5t-73.5 -244.5
q0 -100 21 -182.5t65 -192.5v-352h-546v342h165q-92 85 -128.5 195.5t-36.5 255.5z" />
    <glyph glyph-name="estimated" unicode="&#x212e;" horiz-adv-x="1515" 
d="M1399 272q-268 -286 -623 -286q-208 0 -369 82t-255.5 244.5t-94.5 383.5q0 166 47 308t134 247.5t221 165.5t299 60q164 0 299 -57t222 -152.5t134 -217.5t47 -255v-131h-942v-377q136 -47 258 -47q277 0 479 202zM518 874h486v326q-91 35 -246 35q-48 0 -97 -8t-71 -14
t-72 -21v-318z" />
    <glyph glyph-name="partialdiff" unicode="&#x2202;" horiz-adv-x="1314" 
d="M774 637q0 67 -31 101t-75 34q-146 0 -146 -225q0 -85 33 -125.5t82 -40.5q137 0 137 256zM61 545q0 142 44.5 258t121.5 190.5t178 115t216 40.5q140 0 213 -70q-35 94 -108 139.5t-210 45.5q-40 0 -108 -7v220q144 39 274 39q279 0 425 -184.5t146 -510.5
q0 -394 -171 -613.5t-486 -219.5q-110 0 -205 34.5t-169.5 101t-117.5 175t-43 246.5z" />
    <glyph glyph-name="uni2206" unicode="&#x2206;" horiz-adv-x="1576" 
d="M41 344l565 1112h367l563 -1112v-344h-1495v344zM1067 344l-276 598l-281 -598h557z" />
    <glyph glyph-name="product" unicode="&#x220f;" horiz-adv-x="1542" 
d="M20 1116v340h1502v-340h-133v-1116h-455v1116h-326v-1116h-454v1116h-134z" />
    <glyph glyph-name="summation" unicode="&#x2211;" horiz-adv-x="1200" 
d="M82 928v528h1036v-342h-555l406 -223v-342l-449 -297h598v-344h-1036v530l446 271z" />
    <glyph glyph-name="minus" unicode="&#x2212;" horiz-adv-x="1036" 
d="M41 512v375h954v-375h-954z" />
    <glyph glyph-name="uni2215" unicode="&#x2215;" horiz-adv-x="817" 
d="M-74 -406l545 2362h434l-543 -2362h-436z" />
    <glyph glyph-name="uni2219" unicode="&#x2219;" horiz-adv-x="714" 
d="M618 606q0 -96 -71 -159.5t-189 -63.5q-119 0 -190.5 63.5t-71.5 159.5q0 98 71.5 163t190.5 65q117 0 188.5 -65t71.5 -163z" />
    <glyph glyph-name="radical" unicode="&#x221a;" horiz-adv-x="2088" 
d="M907 -82h-215l-338 604l-190 -110l-125 204l594 351l303 -545l844 1476h254z" />
    <glyph glyph-name="infinity" unicode="&#x221e;" horiz-adv-x="1728" 
d="M506 621q96 0 164 71q-47 56 -85 84.5t-79 28.5q-39 0 -63.5 -24.5t-24.5 -69.5q0 -43 24.5 -66.5t63.5 -23.5zM1223 621q39 0 64.5 24.5t25.5 67.5q0 44 -25 68t-65 24q-113 0 -183 -94q83 -90 183 -90zM68 711q0 177 113.5 281t281.5 104q143 0 240.5 -49t173.5 -134
q67 86 164.5 135t213.5 48q195 -2 301.5 -101t106.5 -282q0 -176 -114 -280.5t-283 -104.5q-241 0 -424 168q-67 -79 -162 -124t-207 -44q-192 2 -298.5 102t-106.5 281z" />
    <glyph glyph-name="integral" unicode="&#x222b;" horiz-adv-x="638" 
d="M2 -201l172 1729q10 101 44.5 178.5t84 125t118.5 77.5t140.5 41.5t157.5 11.5h26l-36 -389h-37q-38 0 -45 -45l-172 -1729q-10 -101 -44.5 -178.5t-84 -125t-118.5 -77.5t-140.5 -41.5t-157.5 -11.5h-27l37 389h35q40 0 47 45z" />
    <glyph glyph-name="approxequal" unicode="&#x2248;" horiz-adv-x="1456" 
d="M41 143q44 278 169 409.5t312 131.5q66 0 133.5 -21.5t112 -47t96 -47t90.5 -21.5q55 0 82.5 32t38.5 109h340q-43 -278 -169 -409.5t-314 -131.5q-66 0 -133 21.5t-111.5 47.5t-96 47.5t-91.5 21.5q-55 0 -83 -33t-40 -109h-336zM41 707q44 278 169 409t312 131
q66 0 133.5 -21.5t112 -47t96 -47t90.5 -21.5q55 0 82.5 32t38.5 109h340q-43 -277 -169 -408.5t-314 -131.5q-66 0 -133 21.5t-111.5 47t-96 47t-91.5 21.5q-55 0 -83 -32.5t-40 -108.5h-336z" />
    <glyph glyph-name="notequal" unicode="&#x2260;" horiz-adv-x="1282" 
d="M43 -2l143 205h-145v411h436l113 162h-549v412h840l143 205h217l-143 -205h143v-412h-432l-115 -162h547v-411h-835l-144 -205h-219z" />
    <glyph glyph-name="lessequal" unicode="&#x2264;" horiz-adv-x="1007" 
d="M98 -123v350h869v-350h-869zM967 399h-557l-369 369l369 371h557l-367 -371z" />
    <glyph glyph-name="greaterequal" unicode="&#x2265;" horiz-adv-x="1007" 
d="M598 399h-557l367 369l-367 371h557l369 -371zM41 227h868v-350h-868v350z" />
    <glyph glyph-name="lozenge" unicode="&#x25ca;" horiz-adv-x="1171" 
d="M20 727l568 563l563 -563l-563 -565zM727 727l-139 139l-142 -139l142 -141z" />
    <glyph glyph-name="dottedcircle" unicode="&#x25cc;" horiz-adv-x="1333" 
d="M1141 838q0 -38 -25 -62t-63 -24t-63 24t-25 62t25 62t63 24t63 -24t25 -62zM371 252q0 -38 -25 -62t-63 -24t-63 24t-25 62t25 62t63 24t63 -24t25 -62zM571 96q0 -38 -25 -62t-63 -24t-63 24t-25 62t25 62t63 24t63 -24t25 -62zM279 483q0 -38 -25 -62t-64 -24
q-38 0 -63 24t-25 62t25 62t63 24q39 0 64 -24t25 -62zM825 68q0 -38 -25 -62t-63 -24t-63 24t-25 62t25 62t63 24t63 -24t25 -62zM309 731q0 -38 -25 -62t-63 -24t-63 24t-25 62t25 62t63 24t63 -24t25 -62zM1061 162q0 -38 -25 -62t-63 -24t-63 24t-25 62t25 62t63 24
t63 -24t25 -62zM465 934q0 -38 -25 -62t-63 -24t-63 24t-25 62t25 62t63 24t63 -24t25 -62zM1210 358q0 -38 -25 -62t-63 -24t-63 24t-25 62t25 62t63 24t63 -24t25 -62zM705 1020q0 -38 -25 -62t-64 -24q-38 0 -63 24t-25 62t25 62t63 24q39 0 64 -24t25 -62zM1231 604
q0 -38 -25 -62t-63 -24t-63 24t-25 62t25 62t63 24t63 -24t25 -62zM952 989q0 -38 -25 -62t-63 -24t-63 24t-25 62t25 62t63 24t63 -24t25 -62z" />
    <glyph glyph-name="fi" unicode="&#xfb01;" horiz-adv-x="1458" 
d="M143 0v776h-123v379h123q5 247 161 370.5t435 98.5v-387q-66 8 -98 -10t-39 -72h703v-1155h-455v776h-252v-776h-455zM1079 1206q-120 0 -191 59.5t-71 155.5q0 95 71 155t191 60q118 0 189 -60t71 -155q0 -96 -70.5 -155.5t-189.5 -59.5z" />
    <glyph glyph-name="fl" unicode="&#xfb02;" horiz-adv-x="1447" 
d="M143 0v776h-123v379h123q3 247 167.5 371t457.5 98v-387q-79 9 -117.5 -9t-48.5 -73h166v-379h-170v-776h-455zM891 0v1516h455v-1516h-455z" />
    <glyph glyph-name="dvK_SSA" horiz-adv-x="1841" 
d="M532 1081q0 -52 41 -87.5t113 -32.5q68 51 68 114q0 41 -29.5 73t-83.5 32q-47 0 -78 -28t-31 -71zM739 -139v293q-83 -86 -245 -86q-173 0 -283.5 99t-110.5 263q0 131 67.5 217t184.5 150q-85 43 -138.5 121.5t-53.5 195.5q0 181 138 300.5t355 119.5
q126 0 224.5 -39.5t159.5 -125t61 -206.5q0 -116 -68 -207h277v560h557v-347h-158v-1169h-399v657h-670q-54 -26 -80.5 -57t-26.5 -76q0 -49 34 -80.5t85 -31.5q61 0 94 42.5t33 94.5h344v-688h-381z" />
    <glyph glyph-name="dvJ_NYA" horiz-adv-x="1775" 
d="M1229 0v668h-201q82 -82 82 -219q0 -159 -104.5 -253t-257.5 -94q-159 0 -256 82v-221h-406v602h389q6 -54 41.5 -88.5t95.5 -34.5q58 0 88.5 31.5t30.5 77.5q0 59 -39 88t-86 29h-106v331h729v170h-1252v347h1821v-347h-158v-1169h-411z" />
    <glyph glyph-name="dvK" horiz-adv-x="1386" 
d="M786 0v205q-96 -117 -286 -117q-193 0 -303.5 134.5t-110.5 346.5q0 217 112.5 349.5t317.5 132.5q180 0 270 -107v225h-809v347h1874v-347h-663v-225q90 107 258 107q130 0 223.5 -66.5t137.5 -174t44 -241.5h-424q0 53 -29.5 90t-88.5 37q-58 0 -89.5 -39t-31.5 -110
v-547h-402zM647 438q60 0 99.5 37.5t39.5 95.5q-2 57 -39 92t-98 35q-62 0 -100.5 -36.5t-38.5 -94.5q0 -57 37 -93t100 -36z" />
    <glyph glyph-name="dvKH" horiz-adv-x="1366" 
d="M-23 1169v347h1854v-347h-995v-157q0 -190 -83.5 -311t-228.5 -152q3 -91 58.5 -150t156.5 -59q122 0 179 72q-48 88 -48 202q0 195 136 308.5t348 113.5q210 0 343.5 -113.5t133.5 -308.5q0 -134 -65 -232t-172 -146t-240 -48q-78 0 -156 19q-78 -104 -197 -164.5
t-272 -60.5q-289 0 -453.5 162.5t-164.5 463.5v223h39q144 0 205 59.5t61 180.5v98h-439zM1237 614q0 -54 31.5 -84t85.5 -30t84 30t30 84q0 53 -30 83t-84 30t-85.5 -30.5t-31.5 -82.5z" />
    <glyph glyph-name="dvG" horiz-adv-x="1204" 
d="M-23 1169v347h1250v-347h-211v-405q0 -107 -28 -194.5t-84 -154t-147.5 -103t-211.5 -36.5q-231 0 -359.5 118t-128.5 349q0 45 2 68h404v-66q0 -56 15.5 -85t53.5 -29q66 0 66 114v424h-621z" />
    <glyph glyph-name="dvGH" horiz-adv-x="737" 
d="M-23 1169v347h1242v-347h-670v-39q0 -57 28 -87.5t95 -30.5h71v-334h-104q-50 0 -76 -22t-26 -60q0 -39 30.5 -59.5t81.5 -20.5q113 0 164 58t51 151h355q0 -111 -37.5 -209t-107 -174t-179.5 -120t-246 -44q-256 0 -396 95t-140 278q0 105 54 179.5t132 105.5v8
q-168 58 -168 266v59h-154z" />
    <glyph glyph-name="dvNG" horiz-adv-x="1490" 
d="M1274 518q-86 0 -146.5 60t-60.5 145q0 88 60.5 148.5t146.5 60.5q88 0 148.5 -60.5t60.5 -148.5q0 -85 -61 -145t-148 -60zM715 -625l-275 488h414l285 -488h-424zM-23 1169v347h1536v-347h-536v-383h-389q-29 0 -46.5 -12t-17.5 -33q0 -47 62 -47h90q67 0 126.5 -11.5
t115 -38.5t96 -68.5t64.5 -104.5t24 -143q0 -176 -126.5 -276.5t-354.5 -100.5t-379.5 102.5t-163.5 292.5h416q2 -25 14 -42.5t30 -26t35 -12t35 -3.5q43 0 71 18t28 52q0 71 -109 71h-66q-35 0 -69.5 3t-78 12.5t-81 25t-75 42.5t-63.5 63t-42.5 89t-16.5 118
q0 155 104.5 238t272.5 83h92v92h-598z" />
    <glyph glyph-name="dvC" horiz-adv-x="888" 
d="M104 705v325h766v-325h-94q-47 0 -80.5 -27t-33.5 -78q0 -54 41 -82t108 -26q203 6 203 284h362q2 -298 -156.5 -465.5t-451.5 -167.5q-229 0 -363.5 96.5t-134.5 282.5q0 108 60 183h-226zM-23 1169v347h1399v-347h-1399z" />
    <glyph glyph-name="dvCH" horiz-adv-x="1695" 
d="M-23 1169v347h1741v-347h-1169v-84q0 -118 96 -118h39v-332h-31q-56 0 -87 -30t-31 -75q0 -68 66 -105.5t230 -37.5q215 0 316.5 68t101.5 211q0 50 -16.5 84t-52.5 34q-37 0 -55.5 -31t-18.5 -83q0 -66 20 -138h-340q-24 78 -24 185q0 124 57 209.5t150.5 124.5
t214.5 39q199 0 314.5 -121t115.5 -324q0 -281 -204.5 -446.5t-582.5 -165.5q-159 0 -288.5 27.5t-226 82.5t-149 143t-52.5 203q0 215 186 304v8q-166 55 -166 266v102h-154z" />
    <glyph glyph-name="dvJ" horiz-adv-x="1132" 
d="M594 164q-252 0 -385 133t-133 356v332h420v-319q0 -138 98 -138q94 0 94 138v319h770v-354h-362q-8 -209 -143 -338t-359 -129zM-23 1169v347h1481v-347h-1481z" />
    <glyph glyph-name="dvJH" horiz-adv-x="1136" 
d="M-23 1169v347h1450v-347h-460v-383h-392q-61 0 -61 -47q0 -45 64 -45h849v-311h-362q12 -52 12 -113q0 -139 -87.5 -225t-237.5 -86q-128 0 -209 51v-192h-393v526h374q0 -41 25 -61.5t65 -20.5q38 0 59 18.5t21 49.5q0 73 -110 73q-71 0 -142 5q-49 3 -96 15.5
t-93.5 38.5t-81 63t-56 93t-21.5 125q0 165 104 251.5t273 86.5h92v88h-586z" />
    <glyph glyph-name="dvNY" horiz-adv-x="1079" 
d="M582 63q-208 0 -347.5 113t-148.5 316h393q12 -42 43 -60t64 -18q54 0 84 41t30 106q0 63 -30 104.5t-84 41.5q-33 0 -64 -17.5t-43 -58.5h-393q6 136 74.5 235t177.5 147t244 48q168 0 291.5 -80t173.5 -229h370v-351h-362q-42 -161 -169 -249.5t-304 -88.5zM-23 1169
v347h1440v-347h-1440z" />
    <glyph glyph-name="dvTT" horiz-adv-x="1316" 
d="M772 -563l-274 487h413l285 -487h-424zM-23 1169v347h1362v-347h-303v-454h-327q-88 0 -146.5 -46.5t-58.5 -129.5q0 -75 49 -121.5t135 -46.5q90 0 141.5 49.5t51.5 132.5h397q0 -248 -157 -395.5t-423 -147.5q-273 0 -442.5 146t-169.5 387q0 220 143 361.5t398 156.5
v108h-650z" />
    <glyph glyph-name="dvTTH" horiz-adv-x="1368" 
d="M684 385q87 0 135.5 50t48.5 130t-48.5 129t-135.5 49q-85 0 -133.5 -49t-48.5 -129t48.5 -130t133.5 -50zM684 39q-169 0 -303.5 61t-214.5 181.5t-80 283.5q0 101 30 185.5t84 145.5t123 103t152 66v104h-498v347h1414v-347h-504v-102q84 -23 154.5 -64.5t125.5 -102.5
t86 -147t31 -188q0 -163 -80.5 -283.5t-215 -181.5t-304.5 -61zM770 -537l-274 488h413l285 -488h-424z" />
    <glyph glyph-name="dvDD" horiz-adv-x="1146" 
d="M672 -625l-275 488h414l285 -488h-424zM-23 1169v347h1192v-347h-192v-383h-389q-29 0 -46.5 -12t-17.5 -33q0 -47 62 -47h90q67 0 126.5 -11.5t115 -38.5t96 -68.5t64.5 -104.5t24 -143q0 -176 -126.5 -276.5t-354.5 -100.5t-379.5 102.5t-163.5 292.5h416
q2 -25 14 -42.5t30 -26t35 -12t35 -3.5q43 0 71 18t28 52q0 71 -109 71h-66q-35 0 -69.5 3t-78 12.5t-81 25t-75 42.5t-63.5 63t-42.5 89t-16.5 118q0 155 104.5 238t272.5 83h90v92h-596z" />
    <glyph glyph-name="dvDDH" horiz-adv-x="1359" 
d="M780 -614l-274 487h414l284 -487h-424zM-23 1169v347h1405v-347h-303v-366h-266q-141 0 -232.5 -74t-91.5 -205q0 -118 70 -192t221 -74q96 0 154.5 31.5t58.5 97.5q0 26 -14 41.5t-39 15.5q-24 0 -37.5 -14.5t-13.5 -34.5q0 -16 6 -28h-293q-10 52 -10 88
q0 135 99 208.5t267 73.5q184 0 287 -95t103 -255q0 -204 -147.5 -315t-428.5 -111q-145 0 -269.5 38t-217.5 110t-146 183.5t-53 250.5q0 251 164.5 396.5t425.5 145.5h12v84h-711z" />
    <glyph glyph-name="dvNN" horiz-adv-x="1222" 
d="M-23 1169v347h1268v-347h-106v-444q0 -103 -30.5 -189.5t-90.5 -151.5t-154.5 -101.5t-216.5 -36.5q-123 0 -219 37.5t-155 104t-89 152t-30 185.5v444h-177zM647 596q40 0 61 24.5t21 65.5v483h-168v-483q0 -40 24 -65t62 -25z" />
    <glyph glyph-name="dvT" horiz-adv-x="776" 
d="M1141 643h-453q-80 0 -130 -43t-50 -113q0 -72 44 -115.5t134 -43.5h33v-326h-101q-86 0 -162.5 16.5t-145 54.5t-118 94.5t-78 141t-28.5 189.5q0 103 31 187t85 141.5t128.5 97t159 57.5t178.5 18h473v-356zM-23 1169v347h1164v-347h-1164z" />
    <glyph glyph-name="dvTH" horiz-adv-x="976" 
d="M1466 752q0 -145 -59.5 -263t-159.5 -191.5t-227 -113t-268 -39.5q-309 0 -489.5 157t-180.5 443q0 102 12 173h164q172 0 262 43t90 143q0 33 -17 54.5t-44 21.5q-30 0 -49 -21t-19 -61q0 -26 8 -62h-374q-9 61 -9 72q0 85 24 156t66 120t99 83.5t122 50.5t136 16
q200 0 324 -119t124 -323q0 -93 -29.5 -172.5t-88.5 -143.5t-158.5 -104t-230.5 -47q21 -55 80 -94t169 -39q162 0 264.5 66.5t102.5 193.5h356z" />
    <glyph glyph-name="dvD" horiz-adv-x="1253" 
d="M1006 -666l-275 488h414l285 -488h-424zM-23 1169v347h1301l-2 -347h-193v-481h-405q-78 0 -121 -39t-43 -104q0 -59 33 -93t90 -34q58 0 88.5 36t30.5 93h387v-637h-408v252q-78 -72 -221 -72q-82 0 -156.5 27.5t-136.5 81.5t-98.5 146t-36.5 210q0 229 150.5 359
t396.5 130h31v125h-687z" />
    <glyph glyph-name="dvDH" horiz-adv-x="872" 
d="M690 129q-122 0 -223 22.5t-178.5 68t-120.5 120.5t-43 174q0 63 21 115.5t56 87t72.5 56.5t77.5 34v8q-104 35 -175 121.5t-71 222.5q0 174 114 274.5t290 100.5q184 0 285.5 -99.5t101.5 -260.5q0 -53 -4 -93h-305q2 20 2 37q0 32 -18 50t-46 18q-31 0 -49 -20t-18 -54
q0 -39 21.5 -65.5t58 -39t70.5 -17.5t73 -5h127v-334h-107q-153 0 -153 -90q0 -88 182 -88q137 0 203.5 53t66.5 142h365q0 -245 -184 -392t-492 -147z" />
    <glyph glyph-name="dvN" horiz-adv-x="1058" 
d="M571 80q-94 0 -181 30.5t-155.5 87.5t-109.5 146.5t-41 198.5q0 116 42.5 206.5t115.5 145.5t165.5 83t198.5 28h819v-347h-436q33 -78 33 -174q0 -100 -36.5 -179t-100 -127.5t-143.5 -73.5t-171 -25zM578 430q51 0 82.5 32t31.5 83q0 50 -31.5 82t-82.5 32
q-52 0 -85.5 -32t-33.5 -82q0 -51 33 -83t86 -32zM-23 1169v347h1448v-347h-1448z" />
    <glyph glyph-name="dvP" horiz-adv-x="706" 
d="M-23 1169v347h1229v-347h-671v-348q0 -85 42 -138.5t125 -53.5q79 0 120.5 53.5t41.5 136.5h342q0 -156 -60 -276.5t-182.5 -192t-291.5 -71.5q-177 0 -304.5 73t-189 194t-61.5 275v348h-140z" />
    <glyph glyph-name="dvPH" horiz-adv-x="1384" 
d="M680 629q73 0 112 48.5t39 121.5v370h-296v-370q0 -75 36.5 -122.5t108.5 -47.5zM-23 1169v347h1956v-347h-684v-223q100 105 279 105q130 0 223 -65.5t137.5 -172.5t44.5 -244h-424q0 53 -29 90t-89 37q-68 0 -105 -49.5t-37 -144.5v-502h-418v367q-98 -88 -262 -88
q-144 0 -248 70t-154 186t-50 264v370h-140z" />
    <glyph glyph-name="dvB" horiz-adv-x="755" 
d="M645 78q-134 0 -241.5 40t-176 110t-105 162.5t-36.5 199.5q0 101 36.5 188.5t105 154.5t176 105.5t241.5 38.5q139 0 247.5 -39t175 -106.5t100.5 -154.5t34 -187q0 -107 -34.5 -198.5t-101.5 -162.5t-175 -111t-246 -40zM657 797q-69 0 -125 -35l342 -236q7 28 7 52
q0 95 -63 157t-161 62zM-23 1169v347h1235v-347h-1235zM657 360q64 0 121 31l-342 234q-6 -21 -6 -47q0 -97 66.5 -157.5t160.5 -60.5z" />
    <glyph glyph-name="dvBH" horiz-adv-x="1144" 
d="M573 426q54 0 79.5 33t25.5 86v80h-76q-59 0 -94 -26t-35 -75t28 -73.5t72 -24.5zM582 74q-223 0 -359.5 122.5t-136.5 325.5q0 112 40 198.5t110.5 139t160 79t193.5 26.5h88v129q0 86 -64 86q-30 0 -46.5 -22.5t-16.5 -57.5q0 -28 6 -58h-418q-8 40 -8 74
q0 88 28.5 163t84.5 132.5t147 90t207 32.5q130 0 223.5 -40.5t146 -114t76 -163t23.5 -200.5v-51h420v-340h-420v-58q0 -230 -123.5 -361.5t-361.5 -131.5z" />
    <glyph glyph-name="dvM" horiz-adv-x="1128" 
d="M557 426q54 0 80.5 33t26.5 86v80h-78q-58 0 -92.5 -26t-34.5 -75t27 -73.5t71 -24.5zM-23 1169v347h1500v-347h-424v-204h424v-340h-424v-58q0 -230 -125 -361.5t-363 -131.5q-223 0 -358 122t-135 326q0 112 40 198.5t109.5 139t158.5 79t193 26.5h91v204h-687z" />
    <glyph glyph-name="dvY" horiz-adv-x="862" 
d="M-23 1169v347h1428v-347h-610v-141q0 -332 -283 -385q9 -81 80 -124.5t172 -43.5q125 0 191.5 66.5t66.5 167.5h383q2 -121 -41.5 -226.5t-125.5 -185t-208.5 -125t-281.5 -45.5q-302 0 -478 152t-176 428q0 59 10 141h17q68 0 116.5 14.5t76.5 37t44 58t20.5 69
t4.5 79.5v63h-406z" />
    <glyph glyph-name="dvR" horiz-adv-x="1081" 
d="M612 -596l-274 487h414l284 -487h-424zM-23 1169v347h1127v-347h-129v-53q0 -91 -12 -165.5t-43.5 -145.5t-82 -120t-132 -81.5t-189.5 -38.5v-157q0 -72 55 -72q26 0 40 20.5t14 51.5v67h399q2 -25 2 -53q0 -202 -117.5 -321t-328.5 -119q-114 0 -206 34.5t-151 95.5
t-90 141.5t-31 174.5v469h201q77 0 128.5 16t78 47.5t37 68t10.5 87.5v53h-580z" />
    <glyph glyph-name="dvL" horiz-adv-x="1273" 
d="M944 856q109 193 365 193q94 0 179 -29.5t155.5 -88.5t112.5 -159.5t42 -230.5l-424 -6q0 68 -34.5 107.5t-96.5 39.5q-68 0 -98.5 -47t-30.5 -111v-59h-344v59q0 64 -30.5 111t-98.5 47q-62 0 -96.5 -39.5t-34.5 -107.5q0 -79 43.5 -121.5t108.5 -42.5q13 0 53 4v-363
q-33 -2 -72 -2q-132 0 -238 39.5t-175.5 110t-106.5 168t-37 213.5q0 105 28 191t75 144t110.5 97.5t133.5 57.5t145 18q251 0 360 -193h6zM-23 1169v347h1821v-347h-1821z" />
    <glyph glyph-name="dvV" horiz-adv-x="690" 
d="M647 84q-135 0 -243 39t-176.5 107t-105 157.5t-36.5 194.5q0 101 36.5 187t105 151t176.5 102t243 37q140 0 251.5 -39t181.5 -106.5t106.5 -155t36.5 -187.5t-37 -187t-107 -154.5t-181.5 -106.5t-250.5 -39zM657 412q73 0 119.5 45t46.5 116t-46.5 115.5t-119.5 44.5
q-76 0 -123 -46.5t-47 -115.5t46.5 -114t123.5 -45zM-23 1169v347h1246v-347h-1246z" />
    <glyph glyph-name="dvSH" horiz-adv-x="1150" 
d="M633 -12q-243 0 -385 132t-142 359v416h277q67 0 119.5 7.5t102.5 26.5t78 58.5t28 97.5q0 38 -18 63.5t-54 25.5q-38 0 -57 -26t-19 -69v-55h-416q-4 46 -4 70q0 195 134.5 317.5t361.5 122.5q225 0 360.5 -124.5t135.5 -350.5q0 -131 -46.5 -231t-128.5 -160.5
t-187 -90.5t-230 -30h-15v-92q0 -111 95 -111q41 0 63.5 27.5t22.5 70.5v35h405q2 -23 2 -41q0 -213 -129.5 -330.5t-353.5 -117.5z" />
    <glyph glyph-name="dvSS" horiz-adv-x="780" 
d="M711 596q129 0 178 100l-369 211v-98q0 -99 48 -156t143 -57zM-23 1169v347h1289v-347h-746v-2l746 -428q0 -74 -22.5 -144.5t-69 -133.5t-113 -111t-161.5 -76t-206 -28q-139 0 -249.5 44.5t-181.5 122.5t-108.5 182t-37.5 226v348h-140z" />
    <glyph glyph-name="dvS" horiz-adv-x="1030" 
d="M-23 1169v347h1305v-347h-379v-104q0 -98 -22 -174h401v-340h-766v-139q0 -32 16.5 -54t49.5 -22q31 0 46 20.5t15 51.5v26h401q3 -35 3 -51q0 -185 -121 -293t-336 -108q-117 0 -210.5 35.5t-153.5 97t-92 142.5t-32 175v414h129q77 0 129 16t78.5 47.5t36.5 68t10 87.5
v104h-508z" />
    <glyph glyph-name="dvH" horiz-adv-x="1196" 
d="M1128 176q-12 -195 -151.5 -305.5t-353.5 -110.5q-235 0 -379 131t-144 357q0 224 166 348q-119 82 -119 227q0 117 87 190.5t243 73.5h98v82h-598v347h1242v-347h-246v-374h-342q-31 0 -50.5 -14.5t-19.5 -43.5q0 -20 12 -35q30 3 60 3q229 0 353 -110t142 -300h-399
q-6 36 -35 59t-71 23q-44 0 -79.5 -34.5t-35.5 -100.5q0 -70 34.5 -105t80.5 -35q39 0 68 20t38 54h399zM690 -813l-274 487h413l285 -487h-424z" />
    <glyph glyph-name="dvLL" horiz-adv-x="1921" 
d="M563 53q-130 0 -237.5 57t-173.5 169t-66 260q0 145 65.5 256.5t173 169t238.5 57.5q259 0 393 -205h9q131 205 393 205q131 0 238.5 -57.5t173 -169t65.5 -256.5q0 -148 -66 -260t-173.5 -169t-237.5 -57q-125 0 -228.5 52t-162.5 155h-13q-59 -103 -162.5 -155
t-228.5 -52zM627 408q57 0 94 36t37 95q0 57 -37.5 94t-93.5 37q-60 0 -96.5 -37t-36.5 -96t37 -94t96 -35zM1294 408q59 0 96 35t37 94t-36.5 96t-96.5 37q-57 0 -94 -37t-37 -94q0 -59 36.5 -95t94.5 -36zM-23 1169v347h1967v-347h-1967z" />
    <glyph glyph-name="dvK_SS" horiz-adv-x="1183" 
d="M532 1081q0 -52 41 -87.5t113 -32.5q68 51 68 114q0 41 -29.5 73t-83.5 32q-47 0 -78 -28t-31 -71zM739 -139v293q-83 -86 -245 -86q-173 0 -283.5 99t-110.5 263q0 131 67.5 217t184.5 150q-85 43 -138.5 121.5t-53.5 195.5q0 181 138 300.5t355 119.5
q126 0 224.5 -39.5t159.5 -125t61 -206.5q0 -116 -68 -207h445v-299h-838q-54 -26 -80.5 -57t-26.5 -76q0 -49 34 -80.5t85 -31.5q61 0 94 42.5t33 94.5h344v-688h-381z" />
    <glyph glyph-name="dvJ_NY" horiz-adv-x="1130" 
d="M-23 1169v347h1498v-347h-1498zM500 668v331h975v-331h-447q82 -82 82 -219q0 -159 -104.5 -253t-257.5 -94q-159 0 -256 82v-221h-406v602h389q6 -54 41.5 -88.5t95.5 -34.5q58 0 88.5 31.5t30.5 77.5q0 59 -39 88t-86 29h-106z" />
    <glyph glyph-name="dvKx" horiz-adv-x="1386" 
d="M786 0v205q-96 -117 -286 -117q-193 0 -303.5 134.5t-110.5 346.5q0 217 112.5 349.5t317.5 132.5q180 0 270 -107v225h-809v347h1874v-347h-663v-225q90 107 258 107q130 0 223.5 -66.5t137.5 -174t44 -241.5h-424q0 53 -29.5 90t-88.5 37q-58 0 -89.5 -39t-31.5 -110
v-547h-402zM444 -465q-97 0 -164 67t-67 162q0 98 67 167t164 69q98 0 166 -69t68 -167q0 -95 -68 -162t-166 -67zM647 438q60 0 99.5 37.5t39.5 95.5q-2 57 -39 92t-98 35q-62 0 -100.5 -36.5t-38.5 -94.5q0 -57 37 -93t100 -36z" />
    <glyph glyph-name="dvKHx" horiz-adv-x="1366" 
d="M-23 1169v347h1854v-347h-995v-157q0 -190 -83.5 -311t-228.5 -152q3 -91 58.5 -150t156.5 -59q122 0 179 72q-48 88 -48 202q0 195 136 308.5t348 113.5q210 0 343.5 -113.5t133.5 -308.5q0 -134 -65 -232t-172 -146t-240 -48q-78 0 -156 19q-78 -104 -197 -164.5
t-272 -60.5q-289 0 -453.5 162.5t-164.5 463.5v223h39q144 0 205 59.5t61 180.5v98h-439zM676 -563q-97 0 -164.5 67t-67.5 162q0 98 67.5 167t164.5 69q98 0 165.5 -68.5t67.5 -167.5q0 -96 -67.5 -162.5t-165.5 -66.5zM1237 614q0 -54 31.5 -84t85.5 -30t84 30t30 84
q0 53 -30 83t-84 30t-85.5 -30.5t-31.5 -82.5z" />
    <glyph glyph-name="dvGx" horiz-adv-x="1204" 
d="M-23 1169v347h1250v-347h-211v-405q0 -107 -28 -194.5t-84 -154t-147.5 -103t-211.5 -36.5q-231 0 -359.5 118t-128.5 349q0 45 2 68h404v-66q0 -56 15.5 -85t53.5 -29q66 0 66 114v424h-621zM543 -276q-97 0 -164.5 67t-67.5 162q0 98 67.5 166.5t164.5 68.5
q98 0 165.5 -68.5t67.5 -166.5q0 -96 -67.5 -162.5t-165.5 -66.5z" />
    <glyph glyph-name="dvJx" horiz-adv-x="1132" 
d="M594 164q-252 0 -385 133t-133 356v332h420v-319q0 -138 98 -138q94 0 94 138v319h770v-354h-362q-8 -209 -143 -338t-359 -129zM-23 1169v347h1481v-347h-1481zM592 -387q-97 0 -164.5 67t-67.5 162q0 98 67.5 167t164.5 69q98 0 165.5 -68.5t67.5 -167.5
q0 -96 -67.5 -162.5t-165.5 -66.5z" />
    <glyph glyph-name="dvPHx" horiz-adv-x="1384" 
d="M680 629q73 0 112 48.5t39 121.5v370h-296v-370q0 -75 36.5 -122.5t108.5 -47.5zM-23 1169v347h1956v-347h-684v-223q100 105 279 105q130 0 223 -65.5t137.5 -172.5t44.5 -244h-424q0 53 -29 90t-89 37q-68 0 -105 -49.5t-37 -144.5v-502h-418v367q-98 -88 -262 -88
q-144 0 -248 70t-154 186t-50 264v370h-140zM422 -260q-97 0 -164.5 67t-67.5 162q0 98 67.5 167t164.5 69q98 0 165.5 -68.5t67.5 -167.5q0 -96 -67.5 -162.5t-165.5 -66.5z" />
    <glyph glyph-name="dvReph" horiz-adv-x="0" 
d="M-520 1452v182q0 69 11 131t42 127t79.5 111.5t129.5 76t186 29.5q222 0 336.5 -124t102.5 -343h-365q9 123 -65 123q-40 0 -56 -30t-16 -95v-188h-385z" />
    <glyph glyph-name="dvEyelash" horiz-adv-x="800" 
d="M1004 653q-78 -57 -188 -91t-226 -34q-105 0 -195 25.5t-165 79.5t-120.5 147.5t-50.5 218.5h398q7 -90 59 -132t133 -42q100 0 191 52zM-23 1169v347h1029v-347h-1029z" />
    <glyph glyph-name="dvRashtrasign" horiz-adv-x="0" 
d="M-1282 -199l272 367h555l275 -367h-420l-133 201l-131 -201h-418z" />
    <glyph glyph-name="dvK_RA" horiz-adv-x="1937" 
d="M786 0v227l-231 -321h-446l213 258q-110 51 -173 158.5t-63 246.5q0 217 112.5 349.5t317.5 132.5q180 0 270 -107v225h-809v347h1983v-347h-772v-225q90 107 258 107q130 0 223.5 -66t137.5 -171t44 -234q0 -217 -116 -341t-303 -124q-75 0 -146 18v324q12 -4 31 -4
q50 0 80 31t30 85q0 53 -29.5 90t-88.5 37q-56 0 -86 -40t-35 -109v-547h-402zM647 438q60 0 99.5 37.5t39.5 95.5q-2 57 -39 92t-98 35q-62 0 -100.5 -36.5t-38.5 -94.5q0 -57 37 -93t100 -36z" />
    <glyph glyph-name="dvKH_RA" horiz-adv-x="2000" 
d="M1452 0v256q-70 -61 -199 -61q-23 0 -63 4l-334 -465h-444v20l202 254q-238 31 -370.5 185.5t-132.5 414.5v223h39q144 0 205 59.5t61 180.5v98h-439v347h2046v-347h-155v-1169h-416zM1348 510q46 0 75 30.5t29 80.5q-2 46 -28 77t-76 31q-49 0 -80 -28.5t-31 -79.5
q0 -54 31 -82.5t80 -28.5zM739 340q116 0 174 66q-47 96 -47 215q0 181 108 301t279 120q124 0 199 -65v192h-616v-157q0 -190 -83.5 -311t-228.5 -152q3 -91 58.5 -150t156.5 -59z" />
    <glyph glyph-name="dvG_RA" horiz-adv-x="1757" 
d="M1217 0v289l-328 -330h-479l796 750v460h-190v-245q0 -106 -28 -193t-84 -154t-147.5 -104t-211.5 -37q-231 0 -359.5 118t-128.5 349q0 45 2 68h404v-66q0 -56 15.5 -84t53.5 -28q66 0 66 112v264h-621v347h1803v-347h-156v-1169h-407z" />
    <glyph glyph-name="dvGH_RA" horiz-adv-x="1415" 
d="M649 516q93 0 154 56.5t61 152.5v444h-315v-28q0 -129 123 -129h71v-334h-104q-50 0 -76 -22t-26 -60q0 -39 30.5 -59.5t81.5 -20.5zM-23 1169v347h1461v-347h-154v-1169h-420v281l-270 -375h-447l256 309q-131 31 -210.5 117t-79.5 219q0 105 54 179.5t132 105.5v8
q-168 58 -168 266v59h-154z" />
    <glyph glyph-name="dvNG_RA" horiz-adv-x="1490" 
d="M1274 518q-86 0 -146.5 60t-60.5 145q0 88 60.5 148.5t146.5 60.5q88 0 148.5 -60.5t60.5 -148.5q0 -85 -61 -145t-148 -60zM-23 1169v347h1536v-347h-536v-383h-389q-29 0 -46.5 -12t-17.5 -33q0 -47 62 -47h90q67 0 126.5 -11.5t115 -38.5t96 -68.5t64.5 -104.5
t24 -143q0 -201 -164 -303l225 -299h-420l-131 200l-133 -200h-418l224 301q-196 104 -207 319h416q2 -25 14 -42.5t30 -26t35 -12t35 -3.5q43 0 71 18t28 52q0 71 -109 71h-66q-35 0 -69.5 3t-78 12.5t-81 25t-75 42.5t-63.5 63t-42.5 89t-16.5 118q0 155 104.5 238
t272.5 83h92v92h-598z" />
    <glyph glyph-name="dvC_RA" horiz-adv-x="1566" 
d="M-23 1169v347h1612v-347h-157v-1169h-418v287q-4 -2 -13 -11l-264 -370h-446l233 282q-117 36 -185.5 123t-68.5 211q0 108 60 183h-226v325h766v-325h-94q-47 0 -80.5 -27t-33.5 -78q0 -54 41 -82t108 -26q203 6 203 284v393h-1037z" />
    <glyph glyph-name="dvCH_RA" horiz-adv-x="1695" 
d="M-23 1169v347h1741v-347h-344v-116q115 -47 177.5 -153t62.5 -255q0 -205 -110.5 -351.5t-321.5 -211.5l207 -277h-420l-131 201l-133 -201h-418l198 269q-178 47 -276 151t-98 264q0 215 186 304v8q-166 55 -166 266v102h-154zM831 387q215 0 316.5 68t101.5 211
q0 50 -16.5 84t-52.5 34q-37 0 -55.5 -31t-18.5 -83q0 -66 20 -138h-340q-24 78 -24 185q0 130 60.5 216t166.5 124v112h-440v-84q0 -118 96 -118h39v-332h-31q-56 0 -87 -30t-31 -75q0 -68 66 -105.5t230 -37.5z" />
    <glyph glyph-name="dvJ_RA" horiz-adv-x="1785" 
d="M-23 1169v347h1831v-347h-155v-1169h-389v217l-281 -336h-455l725 766v17h-188q-36 -166 -157.5 -262.5t-313.5 -96.5q-252 0 -385 133.5t-133 356.5v204h420v-192q0 -137 96 -137t96 137v192h565v170h-1276z" />
    <glyph glyph-name="dvJH_RA" horiz-adv-x="2004" 
d="M578 694h884v475h-495v-383h-392q-61 0 -61 -47q0 -45 64 -45zM1872 0h-352l-226 -244h-415l596 611v16h-410q12 -52 12 -113q0 -139 -87.5 -225t-237.5 -86q-128 0 -209 51v-192h-393v526h374q0 -41 25 -61.5t65 -20.5q38 0 59 18.5t21 49.5q0 73 -110 73q-71 0 -142 5
q-49 3 -96 15.5t-93.5 38.5t-81 63t-56 93t-21.5 125q0 165 104 251.5t273 86.5h92v88h-586v347h2051v-347h-156v-1169z" />
    <glyph glyph-name="dvNY_RA" horiz-adv-x="1742" 
d="M-23 1169v347h1872v-347h-157v-1169h-369l-154 -197h-419l536 607v32h-225q-36 -170 -165.5 -263t-313.5 -93q-208 0 -347.5 112.5t-148.5 315.5h393q12 -42 43 -60t64 -18q54 0 84 38t30 99q0 58 -30 96t-84 38q-33 0 -64 -17.5t-43 -58.5h-393q6 136 74.5 235
t177.5 147t244 48q157 0 276.5 -69.5t175.5 -198.5h240v376h-1297z" />
    <glyph glyph-name="dvTT_RA" horiz-adv-x="1316" 
d="M-23 1169v347h1362v-347h-303v-454h-327q-88 0 -146.5 -46.5t-58.5 -129.5q0 -75 49 -121.5t135 -46.5q90 0 141.5 49.5t51.5 132.5h397q0 -154 -62.5 -271.5t-177.5 -187.5l211 -282h-420l-131 198h-2l-131 -198h-418l207 276q-128 68 -198 185.5t-70 269.5
q0 220 143 361.5t398 156.5v108h-650z" />
    <glyph glyph-name="dvTTH_RA" horiz-adv-x="1376" 
d="M684 385q87 0 135.5 50t48.5 130t-48.5 129t-135.5 49q-85 0 -133.5 -49t-48.5 -129t48.5 -130t133.5 -50zM825 -199l-131 201l-133 -201h-418l228 305q-133 63 -209 181t-76 278q0 101 30 185.5t84 145.5t123 103t152 66v104h-498v347h1414v-347h-504v-102
q84 -23 154.5 -64.5t125.5 -102.5t86 -147t31 -188q0 -156 -72 -271.5t-200 -180.5l233 -312h-420z" />
    <glyph glyph-name="dvDD_RA" horiz-adv-x="1146" 
d="M-23 1169v347h1192v-347h-192v-383h-389q-29 0 -46.5 -12t-17.5 -33q0 -47 62 -47h90q67 0 126.5 -11.5t115 -38.5t96 -68.5t64.5 -104.5t24 -143q0 -203 -168 -305l223 -297h-420l-131 200l-133 -200h-418l226 303q-192 108 -203 317h416q2 -25 14 -42.5t30 -26t35 -12
t35 -3.5q43 0 71 18t28 52q0 71 -109 71h-66q-35 0 -69.5 3t-78 12.5t-81 25t-75 42.5t-63.5 63t-42.5 89t-16.5 118q0 155 104.5 238t272.5 83h90v92h-596z" />
    <glyph glyph-name="dvDDH_RA" horiz-adv-x="1359" 
d="M-23 1169v347h1405v-347h-303v-366h-266q-141 0 -232.5 -74t-91.5 -205q0 -118 70 -192t221 -74q96 0 154.5 31.5t58.5 97.5q0 26 -14 41.5t-39 15.5q-24 0 -37.5 -14.5t-13.5 -34.5q0 -16 6 -28h-293q-10 52 -10 88q0 135 99 208.5t267 73.5q184 0 287 -95t103 -255
q0 -141 -71.5 -238.5t-209.5 -144.5l201 -268h-420l-131 201l-133 -201h-418l227 305q-144 71 -225.5 199t-81.5 303q0 251 164.5 396.5t425.5 145.5h12v84h-711z" />
    <glyph glyph-name="dvNN_RA" horiz-adv-x="1875" 
d="M647 778q40 0 61 24.5t21 65.5v301h-168v-301q0 -40 24 -65t62 -25zM-23 1169v347h1921v-347h-157v-1169h-391v285l-342 -398h-471l796 852v430h-194v-262q0 -103 -30.5 -189.5t-90.5 -151.5t-154.5 -101.5t-216.5 -36.5q-123 0 -219 37.5t-155 104t-89 152t-30 185.5
v262h-177z" />
    <glyph glyph-name="dvT_RA" horiz-adv-x="1474" 
d="M-23 1169v347h1520v-347h-156v-1169h-403v258l-268 -256h-547v16l766 652q-66 47 -156 47q-99 0 -161 -55.5t-62 -157.5h-418q-6 242 135.5 391t395.5 149q181 0 309 -90v215h-955z" />
    <glyph glyph-name="dvTH_RA" horiz-adv-x="1662" 
d="M1110 0v338q-21 -31 -53 -59l-432 -412h-514v22l354 301q-178 55 -280.5 199.5t-102.5 355.5q0 102 12 173h164q172 0 262 43t90 143q0 33 -17 54.5t-44 21.5q-30 0 -49 -21t-19 -61q0 -26 8 -62h-374q-9 61 -9 72q0 85 24 156t66 120t99 83.5t122 50.5t136 16
q200 0 324 -119t124 -323q0 -93 -29.5 -172.5t-88.5 -143.5t-158.5 -104t-230.5 -47q21 -55 80 -94t169 -39q161 0 264 106.5t103 310.5v607h576v-347h-158v-1169h-418z" />
    <glyph glyph-name="dvD_RA" horiz-adv-x="1253" 
d="M-23 1169v347h1299v-347h-193v-481h-405q-78 0 -121 -39t-43 -104q0 -59 33 -93t90 -34q58 0 88.5 36t30.5 93h387v-637h-408v254l-243 -336h-445l268 324q-105 49 -167 150t-62 253q0 229 150.5 359t396.5 130h31v125h-687z" />
    <glyph glyph-name="dvDH_RA" horiz-adv-x="1523" 
d="M1001 0v279l-311 -433h-446l252 304q-166 25 -268.5 118t-102.5 246q0 63 21 115.5t56 87t72.5 56.5t77.5 34v8q-104 35 -175 121.5t-71 222.5q0 174 114 274.5t290 100.5q184 0 285.5 -99.5t101.5 -260.5q0 -53 -4 -93h-305q2 20 2 37q0 32 -18 50t-46 18q-31 0 -49 -20
t-18 -54q0 -39 21.5 -65.5t58 -39t70.5 -17.5t73 -5h127v-334h-107q-153 0 -153 -90q0 -43 40.5 -65.5t117.5 -22.5q138 0 216 85.5t78 229.5v728h566v-347h-148v-1169h-418z" />
    <glyph glyph-name="dvN_RA" horiz-adv-x="1835" 
d="M578 430q51 0 82.5 32t31.5 83q0 50 -31.5 82t-82.5 32q-52 0 -85.5 -32t-33.5 -82q0 -51 33 -83t86 -32zM-23 1169v347h1881v-347h-156v-1169h-375v113l-242 -314h-450l668 731v129h-314q33 -78 33 -174q0 -179 -129.5 -292t-321.5 -113q-94 0 -181 30.5t-155.5 87.5
t-109.5 146.5t-41 198.5q0 116 42.5 206.5t115.5 145.5t165.5 83t198.5 28h697v163h-1326z" />
    <glyph glyph-name="dvP_RA" horiz-adv-x="1415" 
d="M696 629q82 0 125 53.5t43 136.5v350h-329v-348q0 -85 40 -138.5t121 -53.5zM-23 1169v347h1461v-347h-156v-1169h-418v375l-313 -447h-447l320 396q-149 48 -228 181.5t-79 315.5v348h-140z" />
    <glyph glyph-name="dvPH_RA" horiz-adv-x="2015" 
d="M680 629q73 0 112 48.5t39 121.5v370h-296v-370q0 -75 36.5 -122.5t108.5 -47.5zM-23 1169v347h2061v-347h-789v-223q100 105 279 105q128 0 222 -64.5t138.5 -167t44.5 -229.5q0 -222 -116 -348.5t-304 -126.5q-88 0 -161 24v318q24 -6 47 -6q53 0 81.5 34t28.5 84
q0 53 -29.5 90t-88.5 37q-68 0 -105 -49.5t-37 -144.5v-502h-418v360l-282 -432h-447l301 398q-138 50 -212 176.5t-74 296.5v370h-140z" />
    <glyph glyph-name="dvB_RA" horiz-adv-x="1404" 
d="M872 0v176l-227 -315h-434l217 262q-155 45 -248.5 170.5t-93.5 296.5q0 212 140.5 347.5t359.5 135.5q168 0 286 -72v168h-895v347h1450v-347h-153v-1169h-402zM676 809q-69 0 -125 -35l342 -231q4 28 4 47q0 95 -62 157t-159 62zM676 373q65 0 123 33l-344 233
q-6 -24 -6 -49q0 -97 66 -157t161 -60z" />
    <glyph glyph-name="dvBH_RA" horiz-adv-x="1822" 
d="M573 461q58 0 84.5 33.5t26.5 89.5v65h-92q-54 0 -88.5 -26t-34.5 -72q0 -42 29 -66t75 -24zM580 121q-221 0 -357.5 117t-136.5 311q0 109 40 193.5t110.5 136t159.5 77t194 25.5h94v113q0 88 -76 88q-33 0 -51 -22.5t-18 -55.5q0 -23 6 -53h-406q-8 46 -8 75
q0 86 28.5 159t84.5 129t147 88t207 32q103 0 183 -27t131.5 -74t85 -114t47.5 -141t14 -162v-35h270v535h557v-347h-160v-1169h-374v141l-342 -344h-451l770 709v143h-270v-43q0 -217 -125 -351t-354 -134z" />
    <glyph glyph-name="dvM_RA" horiz-adv-x="1800" 
d="M557 461q59 0 86 34.5t27 90.5v65h-95q-54 0 -87 -26t-33 -72q0 -42 28.5 -67t73.5 -25zM1268 983v186h-224v-186h224zM-23 1169v347h1846v-347h-158v-1169h-375v141l-342 -344h-450l770 709v145h-224v-45q0 -218 -125.5 -351.5t-355.5 -133.5q-220 0 -355.5 118
t-135.5 312q0 109 40 193.5t110 135.5t158.5 77t192.5 26h97v186h-693z" />
    <glyph glyph-name="dvY_RA" horiz-adv-x="1574" 
d="M750 475q132 0 202 82t70 211v401h-227v-141q0 -332 -283 -385q8 -71 71 -119.5t167 -48.5zM-23 1169v347h1620v-347h-157v-1169h-418v250l-399 -381h-506v22l329 279q-170 54 -261 194t-91 343q0 59 10 141h17q68 0 116.5 14.5t76.5 37t44 58t20.5 69t4.5 79.5v63h-406z
" />
    <glyph glyph-name="dvL_RA" horiz-adv-x="1884" 
d="M1241 10q-39 0 -72 2v363q36 -4 54 -4q65 0 108 42.5t43 121.5q0 68 -34.5 107.5t-96.5 39.5q-68 0 -98.5 -47t-30.5 -111v-59h-344v59q0 64 -30.5 111t-98.5 47q-62 0 -96.5 -39.5t-34.5 -107.5q0 -79 43.5 -121.5t108.5 -42.5q13 0 53 4v-363q-33 -2 -72 -2
q-132 0 -238 39.5t-175.5 110t-106.5 168t-37 213.5q0 105 28 191t75 144t110.5 97.5t133.5 57.5t145 18q251 0 360 -193h6q76 135 225 176v137h-1192v347h1930v-347h-328v-192q101 -61 160 -170t59 -266q0 -116 -37 -213.5t-106.5 -168t-175.5 -110t-238 -39.5zM897 -438
l272 366h555l275 -366h-420l-131 200l-133 -200h-418z" />
    <glyph glyph-name="dvV_RA" horiz-adv-x="1355" 
d="M657 416q70 0 114 44.5t44 112.5t-44 111t-114 43q-73 0 -117 -45t-44 -111t44 -110.5t117 -44.5zM1378 1169h-155v-1169h-408v211l-229 -305h-445l203 241q-124 52 -191 168t-67 267q0 135 50.5 241.5t155 171t247.5 64.5q172 0 276 -107v217h-838v347h1401v-347z" />
    <glyph glyph-name="dvSH_RA" horiz-adv-x="1835" 
d="M680 930l2 -2q92 73 92 151q0 45 -27.5 77.5t-74.5 33.5q-48 0 -78.5 -30.5t-30.5 -74.5q0 -97 117 -155zM1292 0v268l-86 43l-348 -342h-489v37l518 459l-168 82l-240 -193h-473v49l402 312q-232 165 -232 391q0 193 130 310.5t353 117.5q227 0 359.5 -112.5
t132.5 -297.5q0 -104 -34 -183t-120 -163l295 -143v881h566v-347h-156v-1169h-410z" />
    <glyph glyph-name="dvSS_RA" horiz-adv-x="1454" 
d="M909 942v227h-389v-2zM702 596q131 0 183 102l-365 205v-94q0 -93 46.5 -153t135.5 -60zM-23 1169v347h1500v-347h-158v-1169h-410v354l-358 -426h-447l342 357q-159 53 -244 196.5t-85 339.5v348h-140z" />
    <glyph glyph-name="dvS_RA" horiz-adv-x="1927" 
d="M903 1065q0 -98 -22 -174h514v278h-492v-104zM-23 1169v347h1973v-347h-158v-1169h-358v188l-250 -329h-393l604 712h-897v-161q0 -31 15 -52.5t46 -21.5t46.5 20.5t15.5 49.5v28h360q2 -25 2 -51q0 -185 -110 -293t-306 -108q-219 0 -342 127t-123 321v416h129
q77 0 129 16t78.5 47.5t36.5 68t10 87.5v104h-508z" />
    <glyph glyph-name="dvH_RA" horiz-adv-x="1196" 
d="M1128 86q-12 -185 -151.5 -290t-353.5 -105q-235 0 -379 139.5t-144 378.5q0 252 174 383q-127 81 -127 231q0 117 87 190.5t243 73.5h98v82h-598v347h1242v-347h-246v-374h-342q-31 0 -50.5 -14.5t-19.5 -43.5q0 -23 14 -37q18 2 58 2q197 0 335.5 -98.5t155.5 -255.5
l-129 -164h-362l129 162q-45 45 -115 45q-72 0 -115 -52t-43 -146q0 -85 46 -132t110 -47q42 0 74 20.5t45 51.5h364z" />
    <glyph glyph-name="dvLL_RA" horiz-adv-x="1921" 
d="M627 408q57 0 94 36t37 95q0 57 -37.5 94t-93.5 37q-60 0 -96.5 -37t-36.5 -96t37 -94t96 -35zM1294 408q59 0 96 35t37 94t-36.5 96t-96.5 37q-57 0 -94 -37t-37 -94q0 -59 36.5 -95t94.5 -36zM1503 -172l-131 201l-133 -201h-418l240 322q-58 46 -94 110h-13
q-59 -103 -162.5 -155t-228.5 -52q-130 0 -237.5 57t-173.5 169t-66 260q0 145 65.5 256.5t173 169t238.5 57.5q259 0 393 -205h9q90 141 239 184v168h-1227v347h1967v-347h-336v-213q105 -61 166 -168t61 -249q0 -120 -43 -215.5t-119 -159.5l250 -336h-420z" />
    <glyph glyph-name="dvKx_RA" horiz-adv-x="2136" 
d="M985 0v227l-231 -321h-447l213 258q-109 51 -172 158.5t-63 246.5q0 217 112.5 349.5t317.5 132.5q180 0 270 -107v225h-1008v347h2182v-347h-775v-225q90 107 258 107q99 0 178 -38t128.5 -103.5t75.5 -149.5t26 -180q0 -217 -116.5 -341t-303.5 -124q-74 0 -147 18v324
q16 -4 33 -4q48 0 79 31.5t31 84.5q0 52 -30 89.5t-89 37.5q-109 0 -123 -149v-547h-399zM139 -51q-79 0 -134.5 55t-55.5 133q0 80 55.5 136.5t134.5 56.5q81 0 137 -56.5t56 -136.5q0 -78 -56 -133t-137 -55zM846 438q60 0 99.5 37.5t39.5 95.5q-2 57 -39 92t-98 35
q-64 0 -101.5 -36.5t-37.5 -94.5q0 -57 36.5 -93t100.5 -36z" />
    <glyph glyph-name="dvKHx_RA" horiz-adv-x="2000" 
d="M1452 0v256q-70 -61 -199 -61q-23 0 -63 4l-334 -465h-444v20l202 254q-238 31 -370.5 185.5t-132.5 414.5v223h39q144 0 205 59.5t61 180.5v98h-439v347h2046v-347h-155v-1169h-416zM158 -322q-79 0 -135 55.5t-56 133.5q0 80 56 136t135 56q81 0 136.5 -56t55.5 -136
q0 -79 -55.5 -134t-136.5 -55zM1348 510q46 0 75 30.5t29 80.5q-2 46 -28 77t-76 31q-49 0 -80 -28.5t-31 -79.5q0 -54 31 -82.5t80 -28.5zM739 340q116 0 174 66q-47 96 -47 215q0 181 108 301t279 120q124 0 199 -65v192h-616v-157q0 -190 -83.5 -311t-228.5 -152
q3 -91 58.5 -150t156.5 -59z" />
    <glyph glyph-name="dvGx_RA" horiz-adv-x="1757" 
d="M1217 0v289l-328 -330h-479l796 750v460h-190v-245q0 -106 -28 -193t-84 -154t-147.5 -104t-211.5 -37q-231 0 -359.5 118t-128.5 349q0 45 2 68h404v-66q0 -56 15.5 -84t53.5 -28q66 0 66 112v264h-621v347h1803v-347h-156v-1169h-407zM207 -2q-79 0 -135 55t-56 133
q0 80 56 136.5t135 56.5q81 0 136.5 -56.5t55.5 -136.5q0 -78 -55.5 -133t-136.5 -55z" />
    <glyph glyph-name="dvJx_RA" horiz-adv-x="1785" 
d="M-23 1169v347h1831v-347h-155v-1169h-389v217l-281 -336h-455l725 766v17h-188q-36 -166 -157.5 -262.5t-313.5 -96.5q-252 0 -385 133.5t-133 356.5v204h420v-192q0 -137 96 -137t96 137v192h565v170h-1276zM289 -115q-79 0 -135 55.5t-56 133.5q0 80 56 136t135 56
q81 0 136.5 -56t55.5 -136q0 -79 -55.5 -134t-136.5 -55z" />
    <glyph glyph-name="dvPHx_RA" horiz-adv-x="2215" 
d="M879 629q74 0 112.5 48t38.5 122v370h-295v-370q0 -75 37 -122.5t107 -47.5zM-23 1169v347h2261v-347h-788v-223q97 105 276 105q98 0 176.5 -37t128.5 -100.5t76.5 -146.5t26.5 -177q0 -222 -116 -348.5t-304 -126.5q-88 0 -164 24v318q27 -6 49 -6q53 0 82 34t29 84
q0 52 -30 89.5t-89 37.5q-68 0 -104.5 -49.5t-36.5 -144.5v-502h-420v360l-280 -432h-447l301 398q-138 50 -213.5 177t-75.5 296v370h-338zM186 66q-79 0 -134.5 55t-55.5 133q0 80 55.5 136t134.5 56q81 0 137 -56t56 -136q0 -78 -56 -133t-137 -55z" />
    <glyph glyph-name="dvK_R" horiz-adv-x="1386" 
d="M786 0v227l-231 -321h-446l213 258q-110 51 -173 158.5t-63 246.5q0 217 112.5 349.5t317.5 132.5q180 0 270 -107v225h-809v347h1874v-347h-663v-225q90 107 258 107q130 0 223.5 -66.5t137.5 -174t44 -241.5h-424q0 53 -29.5 90t-88.5 37q-56 0 -86 -40t-35 -109v-547
h-402zM647 438q60 0 99.5 37.5t39.5 95.5q-2 57 -39 92t-98 35q-62 0 -100.5 -36.5t-38.5 -94.5q0 -57 37 -93t100 -36z" />
    <glyph glyph-name="dvKH_R" horiz-adv-x="1366" 
d="M-23 1169v347h1854v-347h-995v-157q0 -190 -83.5 -311t-228.5 -152q3 -91 58.5 -150t156.5 -59q122 0 179 72q-48 88 -48 202q0 195 136 308.5t348 113.5q210 0 343.5 -113.5t133.5 -308.5q0 -134 -65 -232t-172 -146t-240 -48q-84 0 -158 21l-340 -475h-444v20l202 254
q-238 31 -370.5 185.5t-132.5 414.5v223h39q144 0 205 59.5t61 180.5v98h-439zM1354 500q54 0 84 30t30 84q0 53 -30 83t-84 30t-85.5 -30.5t-31.5 -82.5q0 -54 31.5 -84t85.5 -30z" />
    <glyph glyph-name="dvG_R" horiz-adv-x="1204" 
d="M1296 369l-407 -410h-479l886 834v-424zM-23 1169v347h1319v-347h-280v-245q0 -106 -28 -193t-84 -154t-147.5 -104t-211.5 -37q-231 0 -359.5 118t-128.5 349q0 45 2 68h404v-66q0 -56 15.5 -84t53.5 -28q66 0 66 112v264h-621z" />
    <glyph glyph-name="dvGH_R" horiz-adv-x="737" 
d="M-23 1169v347h1242v-347h-670v-39q0 -57 28 -87.5t95 -30.5h71v-334h-104q-50 0 -76 -22t-26 -60q0 -39 30.5 -59.5t81.5 -20.5q113 0 164 58t51 151h355q0 -189 -101 -330l-354 -489h-445l230 276q-208 17 -322 111t-114 258q0 105 54 179.5t132 105.5v8
q-168 58 -168 266v59h-154z" />
    <glyph glyph-name="dvNG_R" horiz-adv-x="1490" 
d="M1274 518q-86 0 -146.5 60t-60.5 145q0 88 60.5 148.5t146.5 60.5q88 0 148.5 -60.5t60.5 -148.5q0 -85 -61 -145t-148 -60zM678 -842l-275 488h414l285 -488h-424zM-23 1169v347h1536v-347h-536v-383h-389q-29 0 -46.5 -12t-17.5 -33q0 -47 62 -47h90q67 0 126.5 -11.5
t115 -38.5t96 -68.5t64.5 -104.5t24 -143q0 -201 -164 -303l225 -299h-420l-131 200l-133 -200h-418l224 301q-196 104 -207 319h416q2 -25 14 -42.5t30 -26t35 -12t35 -3.5q43 0 71 18t28 52q0 71 -109 71h-66q-35 0 -69.5 3t-78 12.5t-81 25t-75 42.5t-63.5 63t-42.5 89
t-16.5 118q0 155 104.5 238t272.5 83h92v92h-598z" />
    <glyph glyph-name="dvC_R" horiz-adv-x="888" 
d="M-23 1169v347h1399v-347h-1399zM104 705v325h766v-325h-94q-47 0 -80.5 -27t-33.5 -78q0 -54 41 -82t108 -26q203 6 203 284h362q0 -244 -102 -397v-2q-4 -5 -11.5 -14.5t-11.5 -14.5l-317 -442h-447l199 241q-193 15 -304.5 110.5t-111.5 264.5q0 108 60 183h-226z" />
    <glyph glyph-name="dvCH_R" horiz-adv-x="1695" 
d="M-23 1169v347h1741v-347h-1169v-84q0 -118 96 -118h39v-332h-31q-56 0 -87 -30t-31 -75q0 -68 66 -105.5t230 -37.5q215 0 316.5 68t101.5 211q0 50 -16.5 84t-52.5 34q-37 0 -55.5 -31t-18.5 -83q0 -66 20 -138h-340q-24 78 -24 185q0 124 57 209.5t150.5 124.5
t214.5 39q199 0 314.5 -121t115.5 -324q0 -205 -110.5 -351.5t-321.5 -211.5l207 -277h-420l-131 201l-133 -201h-418l198 269q-178 47 -276 151t-98 264q0 215 186 304v8q-166 55 -166 266v102h-154z" />
    <glyph glyph-name="dvJ_R" horiz-adv-x="1132" 
d="M-23 1169v347h1481v-347h-1481zM983 -119h-455l723 762h-192q-39 -158 -159 -248t-306 -90q-252 0 -385 133.5t-133 356.5v204h420v-192q0 -137 96 -137t96 137v192h770v-550z" />
    <glyph glyph-name="dvJH_R" horiz-adv-x="1136" 
d="M-23 1169v347h1608v-347h-618v-383h-392q-61 0 -61 -47q0 -45 64 -45h1007v-614l-291 -324h-415l612 627h-426q12 -52 12 -113q0 -139 -87.5 -225t-237.5 -86q-128 0 -209 51v-192h-393v526h374q0 -41 25 -61.5t65 -20.5q38 0 59 18.5t21 49.5q0 73 -110 73q-71 0 -142 5
q-49 3 -96 15.5t-93.5 38.5t-81 63t-56 93t-21.5 125q0 165 104 251.5t273 86.5h92v88h-586z" />
    <glyph glyph-name="dvNY_R" horiz-adv-x="1079" 
d="M582 86q-208 0 -347.5 112.5t-148.5 315.5h393q12 -42 43 -60t64 -18q54 0 84 38t30 99q0 58 -30 96t-84 38q-33 0 -64 -17.5t-43 -58.5h-393q6 136 74.5 235t177.5 147t244 48q157 0 276.5 -69.5t175.5 -198.5h441v-598l-306 -392h-419l563 639h-252
q-36 -170 -165.5 -263t-313.5 -93zM-23 1169v347h1498v-347h-1498z" />
    <glyph glyph-name="dvTT_R" horiz-adv-x="1316" 
d="M778 -754l-274 488h414l284 -488h-424zM-23 1169v347h1362v-347h-303v-454h-327q-88 0 -146.5 -46.5t-58.5 -129.5q0 -75 49 -121.5t135 -46.5q90 0 141.5 49.5t51.5 132.5h397q0 -154 -62.5 -271.5t-177.5 -187.5l211 -282h-420l-131 198h-2l-131 -198h-418l207 276
q-128 68 -198 185.5t-70 269.5q0 220 143 361.5t398 156.5v108h-650z" />
    <glyph glyph-name="dvTTH_R" horiz-adv-x="1376" 
d="M684 385q87 0 135.5 50t48.5 130t-48.5 129t-135.5 49q-85 0 -133.5 -49t-48.5 -129t48.5 -130t133.5 -50zM825 -199l-131 201l-133 -201h-418l228 305q-133 63 -209 181t-76 278q0 101 30 185.5t84 145.5t123 103t152 66v104h-498v347h1414v-347h-504v-102
q84 -23 154.5 -64.5t125.5 -102.5t86 -147t31 -188q0 -156 -72 -271.5t-200 -180.5l233 -312h-420zM768 -766l-274 487h413l285 -487h-424z" />
    <glyph glyph-name="dvDD_R" horiz-adv-x="1146" 
d="M676 -842l-275 488h414l285 -488h-424zM-23 1169v347h1192v-347h-192v-383h-389q-29 0 -46.5 -12t-17.5 -33q0 -47 62 -47h90q67 0 126.5 -11.5t115 -38.5t96 -68.5t64.5 -104.5t24 -143q0 -203 -168 -305l223 -297h-420l-131 200l-133 -200h-418l226 303
q-192 108 -203 317h416q2 -25 14 -42.5t30 -26t35 -12t35 -3.5q43 0 71 18t28 52q0 71 -109 71h-66q-35 0 -69.5 3t-78 12.5t-81 25t-75 42.5t-63.5 63t-42.5 89t-16.5 118q0 155 104.5 238t272.5 83h90v92h-596z" />
    <glyph glyph-name="dvDDH_R" horiz-adv-x="1359" 
d="M795 -831l-275 487h414l285 -487h-424zM-23 1169v347h1405v-347h-303v-366h-266q-141 0 -232.5 -74t-91.5 -205q0 -118 70 -192t221 -74q96 0 154.5 31.5t58.5 97.5q0 26 -14 41.5t-39 15.5q-24 0 -37.5 -14.5t-13.5 -34.5q0 -16 6 -28h-293q-10 52 -10 88
q0 135 99 208.5t267 73.5q184 0 287 -95t103 -255q0 -141 -71.5 -238.5t-209.5 -144.5l201 -268h-420l-131 201l-133 -201h-418l227 305q-144 71 -225.5 199t-81.5 303q0 251 164.5 396.5t425.5 145.5h12v84h-711z" />
    <glyph glyph-name="dvNN_R" horiz-adv-x="1222" 
d="M537 -113l870 928v-463l-399 -465h-471zM-23 1169v347h1430v-347h-268v-262q0 -103 -30.5 -189.5t-90.5 -151.5t-154.5 -101.5t-216.5 -36.5q-123 0 -219 37.5t-155 104t-89 152t-30 185.5v262h-177zM647 778q40 0 61 24.5t21 65.5v301h-168v-301q0 -40 24 -65t62 -25z
" />
    <glyph glyph-name="dvT_R" horiz-adv-x="825" 
d="M92 504q0 112 40.5 210t116.5 173t194 118.5t264 43.5q139 0 261 -46.5t216.5 -144t134.5 -233.5l-649 -623h-547v16l766 652q-66 47 -156 47q-99 0 -161 -55.5t-62 -157.5h-418zM-23 1169v347h1342v-347h-1342z" />
    <glyph glyph-name="dvTH_R" horiz-adv-x="976" 
d="M764 -168h-516v23l356 301q-246 36 -384 187.5t-138 401.5q0 102 12 173h164q172 0 262 43t90 143q0 33 -17 54.5t-44 21.5q-30 0 -49 -21t-19 -61q0 -26 8 -62h-374q-9 61 -9 72q0 85 24 156t66 120t99 83.5t122 50.5t136 16q200 0 324 -119t124 -323
q0 -93 -29.5 -172.5t-88.5 -143.5t-158.5 -104t-230.5 -47q21 -55 80 -94t169 -39q162 0 264.5 66.5t102.5 193.5h356q0 -257 -176 -418z" />
    <glyph glyph-name="dvD_R" horiz-adv-x="1253" 
d="M1008 -666l-275 488h414l285 -488h-424zM-23 1169v347h1299v-347h-193v-481h-405q-78 0 -121 -39t-43 -104q0 -59 33 -93t90 -34q58 0 88.5 36t30.5 93h387v-637h-408v254l-243 -336h-445l268 324q-105 49 -167 150t-62 253q0 229 150.5 359t396.5 130h31v125h-687z" />
    <glyph glyph-name="dvDH_R" horiz-adv-x="872" 
d="M1366 668q0 -182 -104 -314l-365 -508h-446l235 283q-122 1 -222 24t-177 68.5t-119.5 120t-42.5 172.5q0 63 21 115.5t56 87t72.5 56.5t77.5 34v8q-104 35 -175 121.5t-71 222.5q0 174 114 274.5t290 100.5q184 0 285.5 -99.5t101.5 -260.5q0 -53 -4 -93h-305q2 20 2 37
q0 32 -18 50t-46 18q-31 0 -49 -20t-18 -54q0 -39 21.5 -65.5t58 -39t70.5 -17.5t73 -5h127v-334h-107q-153 0 -153 -90q0 -88 182 -88q137 0 203.5 53t66.5 142h365z" />
    <glyph glyph-name="dvN_R" horiz-adv-x="1058" 
d="M571 80q-94 0 -181 30.5t-155.5 87.5t-109.5 146.5t-41 198.5q0 116 42.5 206.5t115.5 145.5t165.5 83t198.5 28h819v-768l-340 -439h-450l782 860h-428q33 -78 33 -174q0 -100 -36.5 -179t-100 -127.5t-143.5 -73.5t-171 -25zM578 430q51 0 82.5 32t31.5 83
q0 50 -31.5 82t-82.5 32q-52 0 -85.5 -32t-33.5 -82q0 -51 33 -83t86 -32zM-23 1169v347h1448v-347h-1448z" />
    <glyph glyph-name="dvP_R" horiz-adv-x="706" 
d="M-23 1169v347h1229v-347h-671v-348q0 -85 42 -138.5t125 -53.5q79 0 120.5 53.5t41.5 136.5h342q0 -219 -116 -362l-371 -529h-445l291 359q-215 30 -331.5 176.5t-116.5 357.5v348h-140z" />
    <glyph glyph-name="dvPH_R" horiz-adv-x="1384" 
d="M680 629q73 0 112 48.5t39 121.5v370h-296v-370q0 -75 36.5 -122.5t108.5 -47.5zM-23 1169v347h1956v-347h-684v-223q100 105 279 105q130 0 223 -65.5t137.5 -172.5t44.5 -244h-424q0 53 -29 90t-89 37q-68 0 -105 -49.5t-37 -144.5v-502h-418v360l-282 -432h-447
l301 398q-138 50 -212 176.5t-74 296.5v370h-140z" />
    <glyph glyph-name="dvB_R" horiz-adv-x="755" 
d="M-23 1169v347h1235v-347h-1235zM813 -139h-414l181 219q-235 20 -364.5 161.5t-129.5 348.5q0 101 36.5 188.5t105 154.5t176 105.5t241.5 38.5q139 0 247.5 -39t175 -106.5t100.5 -154.5t34 -187q0 -180 -90 -307l6 2zM657 797q-69 0 -125 -35l342 -236q7 28 7 52
q0 95 -63 157t-161 62zM657 360q64 0 121 31l-342 234q-6 -21 -6 -47q0 -97 66.5 -157.5t160.5 -60.5z" />
    <glyph glyph-name="dvBH_R" horiz-adv-x="1144" 
d="M573 461q58 0 84.5 33.5t26.5 89.5v65h-92q-54 0 -88.5 -26t-34.5 -72q0 -42 29 -66t75 -24zM580 121q-221 0 -357.5 117t-136.5 311q0 109 40 193.5t110.5 136t159.5 77t194 25.5h94v113q0 88 -76 88q-33 0 -51 -22.5t-18 -55.5q0 -23 6 -53h-406q-8 46 -8 75
q0 86 28.5 159t84.5 129t147 88t207 32q103 0 183 -27t131.5 -74t85 -114t47.5 -141t14 -162v-35h430v-700l-479 -484h-451l926 852h-426v-43q0 -217 -125 -351t-354 -134z" />
    <glyph glyph-name="dvM_R" horiz-adv-x="1128" 
d="M557 461q59 0 86 34.5t27 90.5v65h-95q-54 0 -87 -26t-33 -72q0 -42 28.5 -67t73.5 -25zM-23 1169v347h1500v-347h-433v-186h429v-332l-3 -327l-522 -527h-450l929 854h-383v-45q0 -218 -125.5 -351.5t-355.5 -133.5q-220 0 -355.5 118t-135.5 312q0 109 40 193.5
t110 135.5t158.5 77t192.5 26h97v186h-693z" />
    <glyph glyph-name="dvY_R" horiz-adv-x="862" 
d="M-23 1169v347h1428v-347h-610v-141q0 -332 -283 -385q9 -81 80 -124.5t172 -43.5q125 0 191.5 66.5t66.5 167.5h383q3 -248 -162 -406l-459 -434h-505v22l299 250q-228 39 -356 185.5t-128 380.5q0 59 10 141h17q68 0 116.5 14.5t76.5 37t44 58t20.5 69t4.5 79.5v63h-406
z" />
    <glyph glyph-name="dvL_R" horiz-adv-x="1884" 
d="M1241 10q-39 0 -72 2v363q36 -4 54 -4q65 0 108 42.5t43 121.5q0 68 -34.5 107.5t-96.5 39.5q-68 0 -98.5 -47t-30.5 -111v-59h-344v59q0 64 -30.5 111t-98.5 47q-62 0 -96.5 -39.5t-34.5 -107.5q0 -79 43.5 -121.5t108.5 -42.5q13 0 53 4v-363q-33 -2 -72 -2
q-132 0 -238 39.5t-175.5 110t-106.5 168t-37 213.5q0 105 28 191t75 144t110.5 97.5t133.5 57.5t145 18q251 0 360 -193h6q76 135 225 176v137h-1192v347h1930v-347h-328v-192q101 -61 160 -170t59 -266q0 -116 -37 -213.5t-106.5 -168t-175.5 -110t-238 -39.5zM897 -438
l272 366h555l275 -366h-420l-131 200l-133 -200h-418zM1511 -1004l-274 488h414l284 -488h-424z" />
    <glyph glyph-name="dvV_R" horiz-adv-x="690" 
d="M657 416q71 0 114.5 44.5t43.5 112.5t-43.5 111t-114.5 43q-73 0 -117 -45t-44 -111t44 -110.5t117 -44.5zM825 -139h-434l187 225q-235 20 -363.5 157.5t-128.5 338.5q0 101 36.5 187t105 151t176.5 102t243 37q140 0 251.5 -39t181.5 -106.5t106.5 -155t36.5 -187.5
q0 -159 -88 -278h2zM-23 1169v347h1246v-347h-1246z" />
    <glyph glyph-name="dvSH_R" horiz-adv-x="1099" 
d="M680 930h2q92 76 92 149q0 45 -27.5 77.5t-74.5 33.5q-48 0 -78.5 -30.5t-30.5 -74.5q0 -97 117 -155zM6 354v49l402 314q-232 165 -232 389q0 193 130 310.5t353 117.5q227 0 359.5 -112.5t132.5 -297.5q0 -104 -34 -183t-120 -163l209 -100v-367l-348 -342h-500v25
l531 469l-170 84l-240 -193h-473z" />
    <glyph glyph-name="dvSS_R" horiz-adv-x="780" 
d="M711 596q129 0 178 100l-369 211v-98q0 -99 48 -156t143 -57zM-23 1169v347h1289v-347h-746v-2l746 -428q0 -176 -115 -309l-422 -502h-444l309 324q-228 30 -352.5 186.5t-124.5 382.5v348h-140z" />
    <glyph glyph-name="dvS_R" horiz-adv-x="1030" 
d="M791 -141l571 673v-438l-178 -235h-393zM-23 1169v347h1385v-347h-459v-104q0 -98 -22 -174h481v-320h-864v-161q0 -31 15 -52.5t46 -21.5t46.5 20.5t15.5 49.5v28h360q2 -25 2 -51q0 -185 -110 -293t-306 -108q-219 0 -342 127t-123 321v416h129q77 0 129 16t78.5 47.5
t36.5 68t10 87.5v104h-508z" />
    <glyph glyph-name="dvH_R" horiz-adv-x="1196" 
d="M1128 86q-12 -185 -151.5 -290t-353.5 -105q-235 0 -379 139.5t-144 378.5q0 252 174 383q-127 81 -127 231q0 117 87 190.5t243 73.5h98v82h-598v347h1242v-347h-246v-374h-342q-31 0 -50.5 -14.5t-19.5 -43.5q0 -23 14 -37q18 2 58 2q197 0 335.5 -98.5t155.5 -255.5
l-129 -164h-362l129 162q-45 45 -115 45q-72 0 -115 -52t-43 -146q0 -85 46 -132t110 -47q42 0 74 20.5t45 51.5h364zM682 -883l-274 488h413l285 -488h-424z" />
    <glyph glyph-name="dvLL_R" horiz-adv-x="1921" 
d="M563 53q-130 0 -237.5 57t-173.5 169t-66 260q0 145 65.5 256.5t173 169t238.5 57.5q259 0 393 -205h9q131 205 393 205q131 0 238.5 -57.5t173 -169t65.5 -256.5q0 -120 -43 -215.5t-119 -159.5l250 -336h-420l-131 201l-133 -201h-418l240 322q-58 46 -94 110h-13
q-59 -103 -162.5 -155t-228.5 -52zM627 408q57 0 94 36t37 95q0 57 -37.5 94t-93.5 37q-60 0 -96.5 -37t-36.5 -96t37 -94t96 -35zM1294 408q59 0 96 35t37 94t-36.5 96t-96.5 37q-57 0 -94 -37t-37 -94q0 -59 36.5 -95t94.5 -36zM-23 1169v347h1967v-347h-1967z" />
    <glyph glyph-name="dvKx_R" horiz-adv-x="1585" 
d="M985 0v227l-231 -321h-447l213 258q-109 51 -172 158.5t-63 246.5q0 217 112.5 349.5t317.5 132.5q180 0 270 -107v225h-1008v347h2073v-347h-666v-225q90 107 258 107q99 0 178 -38t128.5 -104.5t75.5 -153t26 -186.5h-424q0 52 -30 89.5t-89 37.5q-109 0 -123 -149
v-547h-399zM139 -51q-79 0 -134.5 55t-55.5 133q0 80 55.5 136.5t134.5 56.5q81 0 137 -56.5t56 -136.5q0 -78 -56 -133t-137 -55zM846 438q60 0 99.5 37.5t39.5 95.5q-2 57 -39 92t-98 35q-64 0 -101.5 -36.5t-37.5 -94.5q0 -57 36.5 -93t100.5 -36z" />
    <glyph glyph-name="dvKHx_R" horiz-adv-x="1366" 
d="M-23 1169v347h1854v-347h-995v-157q0 -190 -83.5 -311t-228.5 -152q3 -91 58.5 -150t156.5 -59q122 0 179 72q-48 88 -48 202q0 195 136 308.5t348 113.5q210 0 343.5 -113.5t133.5 -308.5q0 -134 -65 -232t-172 -146t-240 -48q-84 0 -158 21l-340 -475h-444v20l202 254
q-238 31 -370.5 185.5t-132.5 414.5v223h39q144 0 205 59.5t61 180.5v98h-439zM158 -322q-79 0 -135 55.5t-56 133.5q0 80 56 136t135 56q81 0 136.5 -56t55.5 -136q0 -79 -55.5 -134t-136.5 -55zM1354 500q54 0 84 30t30 84q0 53 -30 83t-84 30t-85.5 -30.5t-31.5 -82.5
q0 -54 31.5 -84t85.5 -30z" />
    <glyph glyph-name="dvGx_R" horiz-adv-x="1204" 
d="M1296 369l-407 -410h-479l886 834v-424zM-23 1169v347h1319v-347h-280v-245q0 -106 -28 -193t-84 -154t-147.5 -104t-211.5 -37q-231 0 -359.5 118t-128.5 349q0 45 2 68h404v-66q0 -56 15.5 -84t53.5 -28q66 0 66 112v264h-621zM207 -2q-79 0 -135 55t-56 133
q0 80 56 136.5t135 56.5q81 0 136.5 -56.5t55.5 -136.5q0 -78 -55.5 -133t-136.5 -55z" />
    <glyph glyph-name="dvJx_R" horiz-adv-x="1132" 
d="M-23 1169v347h1481v-347h-1481zM983 -119h-455l723 762h-192q-39 -158 -159 -248t-306 -90q-252 0 -385 133.5t-133 356.5v204h420v-192q0 -137 96 -137t96 137v192h770v-550zM289 -115q-79 0 -135 55.5t-56 133.5q0 80 56 136t135 56q81 0 136.5 -56t55.5 -136
q0 -79 -55.5 -134t-136.5 -55z" />
    <glyph glyph-name="dvPHx_R" horiz-adv-x="1585" 
d="M879 629q74 0 112.5 48t38.5 122v370h-295v-370q0 -75 37 -122.5t107 -47.5zM-23 1169v347h2157v-347h-684v-223q97 105 276 105q130 0 224 -65.5t139 -173t45 -243.5h-424q0 52 -30 89.5t-89 37.5q-68 0 -104.5 -49.5t-36.5 -144.5v-502h-420v360l-280 -432h-447
l301 398q-138 50 -213.5 177t-75.5 296v370h-338zM186 66q-79 0 -134.5 55t-55.5 133q0 80 55.5 136t134.5 56q81 0 137 -56t56 -136q0 -78 -56 -133t-137 -55z" />
    <glyph glyph-name="dvK_KA" horiz-adv-x="3278" 
d="M1188 1169v-225q90 107 256 107q109 0 201 -50q95 50 213 50q180 0 270 -107v225h-940zM647 438q60 0 99.5 37.5t39.5 95.5q-2 57 -39 92t-98 35q-62 0 -100.5 -36.5t-38.5 -94.5q0 -57 37 -93t100 -36zM2128 0v205q-96 -117 -287 -117q-193 0 -303.5 134.5t-110.5 346.5
h-2q0 53 -28.5 90t-87.5 37q-58 0 -89.5 -39t-31.5 -110v-547h-402v205q-96 -117 -286 -117q-193 0 -303.5 134.5t-110.5 346.5q0 217 112.5 349.5t317.5 132.5q180 0 270 -107v225h-809v347h3324v-347h-772v-225q90 107 258 107q130 0 224 -66t138 -171t44 -234
q0 -217 -116.5 -341t-303.5 -124q-74 0 -145 18v324q12 -4 30 -4q50 0 80.5 31.5t30.5 84.5q0 52 -30 89.5t-89 37.5q-58 0 -89.5 -39t-31.5 -110v-547h-401zM1989 438q60 0 99.5 37.5t39.5 95.5q-2 57 -39 92t-98 35q-63 0 -101.5 -37t-38.5 -94t37.5 -93t100.5 -36z" />
    <glyph glyph-name="dvKx_KxA" horiz-adv-x="3278" 
d="M1188 1169v-225q90 107 256 107q109 0 186 -58q96 58 228 58q180 0 270 -107v225h-940zM444 -465q-97 0 -164 67t-67 162q0 98 67 167t164 69q98 0 166 -69t68 -167q0 -95 -68 -162t-166 -67zM1786 -465q-97 0 -164.5 67t-67.5 162q0 98 67.5 167t164.5 69
q98 0 165.5 -68.5t67.5 -167.5q0 -96 -67.5 -162.5t-165.5 -66.5zM647 438q60 0 99.5 37.5t39.5 95.5q-2 57 -39 92t-98 35q-62 0 -100.5 -36.5t-38.5 -94.5q0 -57 37 -93t100 -36zM1989 438q60 0 99.5 37.5t39.5 95.5q-2 57 -39 92t-98 35q-63 0 -101.5 -37t-38.5 -94
t37.5 -93t100.5 -36zM2128 0v205q-96 -117 -287 -117q-193 0 -303.5 134.5t-110.5 346.5h-2q0 53 -28.5 90t-87.5 37q-58 0 -89.5 -39t-31.5 -110v-547h-402v205q-96 -117 -286 -117q-193 0 -303.5 134.5t-110.5 346.5q0 217 112.5 349.5t317.5 132.5q180 0 270 -107v225
h-809v347h3324v-347h-772v-225q90 107 258 107q130 0 224 -66t138 -171t44 -234q0 -217 -116.5 -341t-303.5 -124q-74 0 -145 18v324q12 -4 30 -4q50 0 80.5 31.5t30.5 84.5q0 52 -30 89.5t-89 37.5q-58 0 -89.5 -39t-31.5 -110v-547h-401z" />
    <glyph glyph-name="dvK_KHA" horiz-adv-x="3317" 
d="M1188 1169v-241q92 102 256 102q160 0 256 -102q31 60 31 143v98h-543zM647 438q60 0 99.5 37.5t39.5 95.5q-2 57 -39 92t-98 35q-62 0 -100.5 -36.5t-38.5 -94.5q0 -57 37 -93t100 -36zM2769 0v258q-73 -63 -201 -63q-23 0 -59 4q-77 -100 -195 -158.5t-268 -58.5
q-288 0 -454.5 156t-166.5 427v4q0 53 -28.5 90t-87.5 37q-58 0 -89.5 -39t-31.5 -110v-547h-402v205q-96 -117 -286 -117q-193 0 -303.5 134.5t-110.5 346.5q0 217 112.5 349.5t317.5 132.5q180 0 270 -107v225h-809v347h3363v-347h-157v-1169h-414zM2662 510q48 0 77.5 30
t29.5 81q-2 46 -29.5 77t-77.5 31q-47 0 -77.5 -28.5t-30.5 -79.5q0 -54 30 -82.5t78 -28.5zM2056 340q116 0 174 66q-47 96 -47 215q0 181 107 301t278 120q126 0 201 -65v192h-619v-157q0 -190 -82.5 -310t-226.5 -153q3 -91 58.5 -150t156.5 -59z" />
    <glyph glyph-name="dvK_CA" horiz-adv-x="2682" 
d="M1778 602q0 -55 41 -83.5t108 -26.5q203 6 203 284v393h-942v-235q87 96 278 96h521v-325h-95q-47 0 -80.5 -26t-33.5 -77zM647 438q60 0 99.5 37.5t39.5 95.5q-2 57 -39 92t-98 35q-62 0 -100.5 -36.5t-38.5 -94.5q0 -57 37 -93t100 -36zM1188 551v-551h-402v205
q-96 -117 -286 -117q-193 0 -303.5 134.5t-110.5 346.5q0 217 112.5 349.5t317.5 132.5q180 0 270 -107v225h-809v347h2728v-347h-155v-1169h-420v274q-118 -127 -334 -127q-184 0 -297 86t-113 256q0 132 93 216h-144q-75 0 -111 -41t-36 -113z" />
    <glyph glyph-name="dvK_JA" horiz-adv-x="3129" 
d="M647 438q60 0 99.5 37.5t39.5 95.5q-2 57 -39 92t-98 35q-62 0 -100.5 -36.5t-38.5 -94.5q0 -57 37 -93t100 -36zM1937 528q95 0 95 138v319h546v184h-1390v-225q90 107 256 107q79 0 145.5 -22.5t111.5 -59.5t77 -85.5t46.5 -100.5t14.5 -105v-12q0 -138 98 -138z
M1188 547v-547h-402v205q-96 -117 -286 -117q-193 0 -303.5 134.5t-110.5 346.5q0 217 112.5 349.5t317.5 132.5q180 0 270 -107v225h-809v347h3175v-347h-156v-1169h-418v631h-139q-8 -209 -143 -338t-359 -129q-125 0 -224.5 35t-161 93.5t-94 132t-32.5 155.5v2
q0 50 -28.5 82t-87.5 32q-58 0 -89.5 -39t-31.5 -110z" />
    <glyph glyph-name="dvK_TTA" horiz-adv-x="2656" 
d="M1188 1169v-225q90 107 256 107q131 0 227 -70q127 71 295 80v108h-778zM647 438q60 0 99.5 37.5t39.5 95.5q-2 57 -39 92t-98 35q-62 0 -100.5 -36.5t-38.5 -94.5q0 -57 37 -93t100 -36zM1188 547v-547h-402v205q-96 -117 -286 -117q-193 0 -303.5 134.5t-110.5 346.5
q0 217 112.5 349.5t317.5 132.5q180 0 270 -107v225h-809v347h2702v-347h-303v-454h-328q-88 0 -146.5 -46.5t-58.5 -129.5q0 -75 49.5 -121.5t135.5 -46.5q90 0 141 49.5t51 132.5h397q0 -248 -156.5 -395.5t-422.5 -147.5q-273 0 -443 146t-170 387v26q0 53 -28.5 90
t-87.5 37q-58 0 -89.5 -39t-31.5 -110z" />
    <glyph glyph-name="dvK_NNA" horiz-adv-x="3139" 
d="M1188 1169v-247q78 81 219 90v157h-219zM647 438q60 0 99.5 37.5t39.5 95.5q-2 57 -39 92t-98 35q-62 0 -100.5 -36.5t-38.5 -94.5q0 -57 37 -93t100 -36zM1901 596q40 0 60.5 24.5t20.5 65.5v483h-167v-483q0 -40 24 -65t62 -25zM1188 547v-547h-402v205
q-96 -117 -286 -117q-193 0 -303.5 134.5t-110.5 346.5q0 217 112.5 349.5t317.5 132.5q180 0 270 -107v225h-809v347h3185v-347h-158v-1169h-417v1169h-195v-444q0 -103 -30.5 -189.5t-90 -151.5t-154 -101.5t-216.5 -36.5q-193 0 -313.5 88.5t-160.5 236.5h-2v7
q-7 30 -10 53q-28 65 -106 65q-58 0 -89.5 -39t-31.5 -110z" />
    <glyph glyph-name="dvK_TA" horiz-adv-x="2222" 
d="M-23 1169v347h2268v-347h-777v-258q90 107 261 107q130 0 224 -66.5t138.5 -172t44.5 -234.5q0 -217 -117.5 -341t-304.5 -124q-76 0 -147 18v324q12 -4 32 -4q50 0 81.5 32t31.5 87q0 51 -30 88t-87 37q-60 0 -93.5 -40.5t-33.5 -107.5v-514h-403v641h-191
q-82 0 -132 -42t-50 -114q0 -70 45 -113.5t135 -43.5h31v-326h-100q-140 0 -258 49.5t-193.5 152t-75.5 240.5q0 116 46 203h-238v350h981v172h-1088z" />
    </font>
</defs>
</svg>
