<?xml version="1.0" standalone="no"?>
<!DOCTYPE svg PUBLIC "-//W3C//DTD SVG 1.1//EN" "http://www.w3.org/Graphics/SVG/1.1/DTD/svg11.dtd" >
<svg xmlns="http://www.w3.org/2000/svg" xmlns:xlink="http://www.w3.org/1999/xlink" version="1.1">
<metadata>
Created by FontForge 20170731 at Thu May 11 10:47:27 2023
 By Aleksey,,,
Copyright 2014-2017 Indian Type Foundry (info@indiantypefoundry.com)
</metadata>
<defs>
<font id="Poppins-ThinItalic" horiz-adv-x="555" >
  <font-face 
    font-family="Poppins Thin"
    font-weight="250"
    font-style="italic"
    font-stretch="normal"
    units-per-em="2048"
    panose-1="0 0 3 0 0 0 0 0 0 0"
    ascent="1638"
    descent="-410"
    x-height="1106"
    cap-height="1442"
    bbox="-1006.51 -1112 5544 2101"
    underline-thickness="102"
    underline-position="-307"
    slope="-10"
    unicode-range="U+000D-FB02"
  />
<missing-glyph horiz-adv-x="1024" 
d="M0 0v1434h1024v-1434h-1024zM512 809l348 522h-696zM573 717l349 -522v1044zM164 102h696l-348 523zM102 1239v-1044l349 522z" />
    <glyph glyph-name=".notdef" horiz-adv-x="1024" 
d="M0 0v1434h1024v-1434h-1024zM512 809l348 522h-696zM573 717l349 -522v1044zM164 102h696l-348 523zM102 1239v-1044l349 522z" />
    <glyph glyph-name=".null" horiz-adv-x="0" 
 />
    <glyph glyph-name="nonmarkingreturn" horiz-adv-x="682" 
 />
    <glyph glyph-name="NULL" horiz-adv-x="0" 
 />
    <glyph glyph-name="NULL" horiz-adv-x="0" 
 />
    <glyph glyph-name="CR" unicode="&#xd;" horiz-adv-x="593" 
 />
    <glyph glyph-name="space" unicode=" " horiz-adv-x="593" 
 />
    <glyph glyph-name="exclam" unicode="!" horiz-adv-x="462" 
d="M168 322l192 1120h50l-205 -1120h-37zM197 51q-4 -25 -22 -40t-42 -15q-23 0 -35 15t-8 40t22 40t42 15q23 0 35 -15t8 -40z" />
    <glyph glyph-name="quotedbl" unicode="&#x22;" horiz-adv-x="401" 
d="M223 1257l47 367h64l-78 -367h-33zM397 1257l47 367h64l-78 -367h-33z" />
    <glyph glyph-name="numbersign" unicode="#" horiz-adv-x="1521" 
d="M977 545l160 407h-514l-160 -407h514zM764 0l199 508h-514l-199 -508h-41l199 508h-334l6 37h342l160 407h-328l8 37h334l205 527h41l-205 -527h514l205 527h41l-205 -527h326l-9 -37h-331l-160 -407h317l-6 -37h-325l-199 -508h-41z" />
    <glyph glyph-name="dollar" unicode="$" horiz-adv-x="1097" 
d="M399 -178l29 166q-166 17 -255.5 120.5t-80.5 237.5h41q-2 -46 12.5 -94.5t46.5 -97.5t95 -84.5t147 -44.5l123 698q-36 11 -57.5 18t-54.5 19.5t-53.5 22.5t-48 25.5t-43.5 31.5t-35 37t-28.5 45t-16.5 53t-6.5 63.5t7.5 73.5q26 149 145 246.5t306 97.5h14l33 182h41
l-33 -184q82 -8 144.5 -39t98 -76t54 -93.5t20.5 -100.5h-40q-3 39 -18 79.5t-46 82t-87.5 71.5t-131.5 39l-117 -665q35 -11 58 -18.5t55 -19.5t53.5 -23t48 -26.5t43.5 -33t35 -39t27.5 -47t16 -55.5t5.5 -66.5t-8 -77.5q-11 -66 -43.5 -127t-86 -114.5t-138 -86
t-187.5 -32.5h-14l-29 -164h-41zM262 1112q-6 -34 -6.5 -64t5.5 -55.5t14.5 -47t24.5 -40t31.5 -33.5t38.5 -28.5t43 -23.5t48.5 -21t50.5 -18t53 -17l115 655h-14q-159 0 -268.5 -80.5t-135.5 -226.5zM489 23q170 0 276.5 92t131.5 231q6 36 7 67.5t-5 58t-14.5 49t-24 42
t-31 35t-38.5 30t-43 25t-48.5 22t-50.5 19t-53 17.5l-121 -688h14z" />
    <glyph glyph-name="percent" unicode="%" horiz-adv-x="1083" 
d="M195 1192q20 114 107.5 189t199.5 75t172.5 -75t40.5 -189t-107.5 -189t-199.5 -75t-172.5 75t-40.5 189zM496 1419q-96 0 -169.5 -64t-90.5 -163t32.5 -163t145.5 -64t169.5 64t90.5 163t-32.5 163t-145.5 64zM-14 0l1122 1442h47l-1122 -1442h-47zM428 248
q20 114 106.5 189t198.5 75q113 0 174 -75t41 -189t-107.5 -189t-199.5 -75t-172.5 75t-40.5 189zM727 475q-96 0 -168.5 -64t-89.5 -163q-19 -99 31.5 -163.5t146.5 -64.5t168.5 64.5t91.5 163.5q17 99 -33.5 163t-146.5 64z" />
    <glyph glyph-name="ampersand" unicode="&#x26;" horiz-adv-x="1376" 
d="M1004 1174h-41q4 28 4 43q0 93 -66.5 144.5t-167.5 51.5q-140 0 -232.5 -81t-92.5 -210q0 -115 108 -248l469 -593q104 110 232 282l131 174h45l-160 -215q-130 -173 -225 -270l198 -252h-47l-178 223q-128 -127 -252.5 -185t-269.5 -58q-180 0 -291 101t-111 263
q0 170 113 300.5t309 199.5l6 2q-118 146 -118 274q0 144 105 238t263 94q116 0 194.5 -60.5t78.5 -168.5q0 -17 -4 -49zM459 18q140 0 258 56.5t241 179.5l-448 561l-16 -6q-186 -65 -291 -183.5t-105 -281.5q0 -145 99.5 -235.5t261.5 -90.5z" />
    <glyph glyph-name="quotesingle" unicode="'" horiz-adv-x="243" 
d="M231 1257l39 367h80l-86 -367h-33z" />
    <glyph glyph-name="parenleft" unicode="(" horiz-adv-x="694" 
d="M418 -381h-45q-111 145 -176.5 351t-65.5 458q0 411 173.5 817t471.5 668h47v-6q-306 -270 -478.5 -668t-172.5 -811q0 -234 63 -439.5t183 -363.5v-6z" />
    <glyph glyph-name="parenright" unicode=")" horiz-adv-x="692" 
d="M637 1112q0 -416 -172.5 -822t-470.5 -671h-47v6q307 271 478 668.5t171 814.5q0 483 -246 799v6h47q111 -143 175.5 -348t64.5 -453z" />
    <glyph glyph-name="asterisk" unicode="*" horiz-adv-x="878" 
d="M631 1491l-64 -346l324 168l14 -35l-330 -162l271 -166l-19 -30l-270 167l-59 -350h-37l63 350l-327 -167l-17 34l334 162l-268 166l18 31l271 -168l59 346h37z" />
    <glyph glyph-name="plus" unicode="+" horiz-adv-x="1206" 
d="M713 1300h41l-88 -503h501l-6 -37h-504l-88 -504h-41l88 504h-497l6 37h500z" />
    <glyph glyph-name="comma" unicode="," horiz-adv-x="231" 
d="M-201 -317l248 507h53l-260 -507h-41z" />
    <glyph glyph-name="hyphen" unicode="-" horiz-adv-x="909" 
d="M-35 760l6 37h746l-6 -37h-746z" />
    <glyph glyph-name="period" unicode="." horiz-adv-x="237" 
d="M84 51q-4 -25 -22 -40t-42 -15q-23 0 -35 15t-8 40t22.5 40t41.5 15t35 -15t8 -40z" />
    <glyph glyph-name="slash" unicode="/" horiz-adv-x="735" 
d="M-92 -319l960 2234h45l-964 -2234h-41z" />
    <glyph glyph-name="zero" unicode="0" horiz-adv-x="1204" 
d="M174 725q17 95 35.5 172t46 154.5t60 136.5t77 111t97.5 85.5t122 52.5t150 19t143 -19t103 -52.5t67.5 -85.5t38.5 -111.5t12 -136t-8.5 -154.5t-25.5 -172q-24 -135 -53 -239t-76.5 -201.5t-108.5 -160.5t-150.5 -100.5t-201.5 -37.5q-81 0 -143 19.5t-103.5 53.5
t-67.5 86.5t-37.5 112t-11 137.5t9 156t25.5 174zM1051 725q16 90 24.5 163t9.5 146.5t-9 129.5t-33.5 105.5t-61 81.5t-94 50t-131.5 18q-87 0 -158 -23.5t-124.5 -69.5t-94.5 -105t-72 -141t-52 -165.5t-40 -189.5q-16 -91 -25 -165t-10 -148t8.5 -131t33 -107t61 -82
t94 -50.5t131.5 -18.5q87 0 158 23.5t124.5 70.5t94.5 106.5t72 143t53 167.5t41 191z" />
    <glyph glyph-name="one" unicode="1" horiz-adv-x="462" 
d="M150 0l247 1405h-217l8 37h258l-256 -1442h-40z" />
    <glyph glyph-name="two" unicode="2" horiz-adv-x="1161" 
d="M4 0l4 23q216 125 393.5 252.5t318.5 259t228 264.5t109 256q8 56 8.5 109t-19 99.5t-53.5 81t-95 54.5t-144 20q-102 0 -187 -33.5t-146 -93.5t-103.5 -137.5t-65.5 -171.5h-41q56 221 200.5 347t348.5 126q81 0 147.5 -21.5t118 -66.5t71.5 -125t1 -188
q-20 -112 -95.5 -235.5t-180 -232.5t-234.5 -215.5t-254.5 -188.5t-243.5 -146h879l-8 -37h-957z" />
    <glyph glyph-name="three" unicode="3" horiz-adv-x="1177" 
d="M223 1057q53 186 196 292.5t349 106.5q192 0 280.5 -99.5t61.5 -256.5q-11 -61 -38 -115t-74.5 -103.5t-126 -82.5t-179.5 -41l-2 -13q169 -20 258 -116.5t60 -261.5q-14 -80 -51.5 -147.5t-98 -120.5t-151 -83t-201.5 -30q-202 0 -313 109.5t-111 307.5h41
q2 -169 102 -272.5t289 -103.5q192 0 309.5 95.5t143.5 244.5q32 178 -93.5 271t-379.5 93h-35l8 39h37q508 0 565 330q25 143 -54.5 231t-252.5 88q-79 0 -153 -20t-141.5 -61.5t-121 -113t-82.5 -167.5h-41z" />
    <glyph glyph-name="four" unicode="4" horiz-adv-x="1175" 
d="M756 0l69 389h-813l6 33l994 1020h41l-181 -1016h250l-6 -37h-250l-69 -389h-41zM70 426h761l168 950z" />
    <glyph glyph-name="five" unicode="5" horiz-adv-x="1212" 
d="M324 1442h864l-8 -37h-824l-114 -655q74 87 198.5 140.5t259.5 53.5q99 0 174.5 -25t120 -68.5t71.5 -102.5t29 -126t-8 -139q-18 -99 -59.5 -185.5t-109 -157.5t-169.5 -112.5t-227 -41.5q-193 0 -302 108.5t-105 298.5h41q3 -179 103 -272.5t269 -93.5
q217 0 350.5 125.5t168.5 330.5q34 197 -56.5 310.5t-296.5 113.5q-141 0 -265 -60t-204 -165h-37z" />
    <glyph glyph-name="six" unicode="6" horiz-adv-x="1257" 
d="M1165 1069h-41q8 167 -71 259.5t-244 92.5q-120 0 -217 -44t-177 -138.5t-135.5 -253t-84.5 -377.5q53 160 202.5 255t333.5 95q226 0 326.5 -133t60.5 -366q-16 -93 -56 -174.5t-105 -150t-165 -108.5t-223 -40q-93 0 -165.5 20.5t-120 55.5t-79 88t-46 111.5t-16.5 133
t4.5 145t21.5 154.5q32 179 83 315t128 239t186.5 156.5t249.5 53.5q184 0 271.5 -104.5t78.5 -284.5zM725 922q-84 0 -168.5 -26t-161.5 -75t-133 -132t-74 -187q-9 -51 -9.5 -99.5t8.5 -96.5t28 -89.5t51.5 -77.5t75 -61.5t102.5 -40t131 -14.5q192 0 329 116.5t173 319.5
q39 225 -55.5 344t-296.5 119z" />
    <glyph glyph-name="seven" unicode="7" horiz-adv-x="1028" 
d="M178 1442h926l-8 -37l-822 -1405h-47l830 1405h-887z" />
    <glyph glyph-name="eight" unicode="8" horiz-adv-x="1245" 
d="M500 741q-155 34 -215 126.5t-37 222.5q30 166 172.5 266t361.5 100t326.5 -100t77.5 -266q-23 -130 -116 -222.5t-259 -126.5q161 -28 238 -127.5t51 -251.5q-34 -192 -188.5 -302.5t-395.5 -110.5t-355.5 110.5t-80.5 302.5q26 152 137.5 251.5t282.5 127.5zM776 1419
q-196 0 -327 -85t-160 -244q-27 -157 72 -243.5t298 -86.5t329 86.5t157 243.5q29 159 -72 244t-297 85zM653 723q-97 0 -183 -20t-159.5 -61.5t-123.5 -113t-66 -166.5q-33 -181 76 -278.5t325 -97.5q215 0 359.5 97.5t177.5 278.5q16 95 -9 166.5t-84 113t-137.5 61.5
t-175.5 20z" />
    <glyph glyph-name="nine" unicode="9" horiz-adv-x="1257" 
d="M150 373h40q-6 -167 73.5 -260t244.5 -93q120 0 217 44t177 139t135.5 253.5t84.5 377.5q-55 -160 -204 -255.5t-332 -95.5q-226 0 -326.5 133.5t-60.5 366.5q16 93 56 174.5t105 150t165 108.5t223 40q93 0 165.5 -20.5t120 -55.5t79 -88t46 -111.5t16.5 -133t-4.5 -145
t-21.5 -154.5q-32 -179 -83 -315t-128 -239t-186.5 -156.5t-249.5 -53.5q-184 0 -272 104.5t-80 284.5zM592 520q83 0 167.5 25.5t161 75t133 132.5t74.5 187q9 51 9.5 99.5t-8.5 96.5t-28 89.5t-51.5 77.5t-75 61.5t-102.5 40t-131 14.5q-192 0 -328.5 -116.5
t-172.5 -319.5q-39 -225 55.5 -344t296.5 -119z" />
    <glyph glyph-name="colon" unicode=":" horiz-adv-x="237" 
d="M84 51q-4 -25 -22 -40t-42 -15q-23 0 -35 15t-8 40t22.5 40t41.5 15t35 -15t8 -40zM84 979q-4 -25 -22 -40t-42 -15q-23 0 -35 15t-8 40t22.5 40t41.5 15t35 -15t8 -40z" />
    <glyph glyph-name="semicolon" unicode=";" horiz-adv-x="286" 
d="M258 983q-4 -25 -22 -40t-41 -15t-35 15t-8 40t22 40t41 15t35 -15t8 -40zM-160 -317l248 507h53l-260 -507h-41z" />
    <glyph glyph-name="less" unicode="&#x3c;" horiz-adv-x="780" 
d="M172 778l481 -485h-51l-481 485l651 488h51z" />
    <glyph glyph-name="equal" unicode="=" horiz-adv-x="1155" 
d="M86 580l6 36h991l-6 -36h-991zM152 942l6 37h991l-6 -37h-991z" />
    <glyph glyph-name="greater" unicode="&#x3e;" horiz-adv-x="780" 
d="M37 293l649 485l-479 488h51l479 -488l-649 -485h-51z" />
    <glyph glyph-name="question" unicode="?" horiz-adv-x="987" 
d="M147 1069q33 181 171 284t321 103q187 0 288.5 -112t69.5 -291q-22 -122 -76 -209.5t-136.5 -138t-181 -73.5t-222.5 -24l-57 -297h-33l55 334h33q82 0 148 8t140.5 33.5t128.5 68.5t98 119t62 179q29 167 -61.5 266.5t-261.5 99.5q-174 0 -295 -95.5t-150 -254.5h-41z
M317 51q-4 -25 -22 -40t-41 -15t-35 15t-8 40t22 40t41 15t35 -15t8 -40z" />
    <glyph glyph-name="at" unicode="@" horiz-adv-x="1976" 
d="M1430 -10q-95 0 -139.5 67t-33.5 174q-60 -115 -164 -178t-223 -63q-152 0 -237.5 93t-85.5 251q0 147 59.5 274.5t171.5 207t252 79.5q121 0 200.5 -66t98.5 -188l39 223h37l-107 -606q-19 -101 18.5 -166t119.5 -65q97 0 173.5 86.5t115 214.5t38.5 266q0 291 -189 469
t-497 178q-188 0 -356 -75t-286.5 -202t-188 -300t-70.5 -363q-1 -301 182.5 -473t491.5 -172q174 0 336 65l10 -36q-175 -66 -358 -66q-206 0 -365 81t-248.5 234t-89.5 357q0 205 72.5 387.5t197.5 314t301.5 208.5t376.5 77q209 0 373.5 -85.5t256 -240t91.5 -350.5
q0 -116 -25 -224.5t-71.5 -195.5t-118.5 -139.5t-159 -52.5zM1294 442q19 85 9 160.5t-41 132.5t-92 90t-144 33q-129 0 -231 -75.5t-154.5 -193t-52.5 -251.5q0 -145 77.5 -228t213.5 -83q149 0 264.5 108t150.5 307z" />
    <glyph glyph-name="A" unicode="A" horiz-adv-x="1230" 
d="M1024 0l-80 397h-713l-221 -397h-47l782 1399h41l285 -1399h-47zM936 434l-182 899l-502 -899h684z" />
    <glyph glyph-name="B" unicode="B" horiz-adv-x="1146" 
d="M975 385q28 158 -69 251t-292 93h-368l-121 -688h373q195 0 321.5 91.5t155.5 252.5zM1065 1090q26 142 -54 226.5t-274 84.5h-372l-111 -631h385q180 0 289.5 85.5t136.5 234.5zM1016 385q-31 -169 -167.5 -277t-359.5 -108h-413l256 1442h413q88 0 156.5 -17.5
t111 -49.5t68.5 -76t30 -96.5t-5 -112.5q-17 -98 -69.5 -172t-117.5 -112.5t-141 -55.5q125 -25 193.5 -126t44.5 -239z" />
    <glyph glyph-name="C" unicode="C" horiz-adv-x="1574" 
d="M152 719q38 214 154 382.5t285.5 261.5t362.5 93q251 0 395.5 -116.5t184.5 -323.5h-41q-34 183 -171.5 293t-373.5 110q-104 0 -204 -30.5t-189 -90.5t-161.5 -143.5t-124 -195.5t-74.5 -240q-29 -162 -2.5 -291t96 -219t175.5 -138t236 -48q236 0 413 110t276 291h41
q-113 -206 -299 -322t-437 -116q-193 0 -330 93t-193 260.5t-19 379.5z" />
    <glyph glyph-name="D" unicode="D" horiz-adv-x="1437" 
d="M711 1442q373 0 533.5 -188t98.5 -533q-61 -345 -288 -533t-600 -188h-379l256 1442h379zM125 37h338q355 0 569 180.5t271 503.5q58 323 -93.5 503.5t-507.5 180.5h-337z" />
    <glyph glyph-name="E" unicode="E" horiz-adv-x="980" 
d="M1036 1442l-8 -37h-663l-117 -666h602l-6 -37h-602l-117 -665h663l-8 -37h-704l256 1442h704z" />
    <glyph glyph-name="F" unicode="F" horiz-adv-x="960" 
d="M76 0l256 1442h704l-8 -37h-663l-117 -666h602l-6 -37h-602l-125 -702h-41z" />
    <glyph glyph-name="G" unicode="G" horiz-adv-x="1622" 
d="M152 719q37 213 155 381t292 261t372 93q232 0 377 -118t186 -322h-41q-33 180 -172.5 291.5t-357.5 111.5q-134 0 -260 -48.5t-229 -137t-176.5 -221t-102.5 -291.5q-29 -163 -1 -292.5t99.5 -220t180.5 -138.5t243 -48q132 0 257 47t228 133t178 214.5t107 283.5h-680
l6 37h719l-4 -16q-57 -323 -286.5 -529t-530.5 -206q-149 0 -267.5 54t-191 151.5t-101.5 232.5t1 297z" />
    <glyph glyph-name="H" unicode="H" horiz-adv-x="1329" 
d="M1016 0l129 723h-899l-129 -723h-41l256 1442h41l-121 -682h899l121 682h41l-256 -1442h-41z" />
    <glyph glyph-name="I" unicode="I" horiz-adv-x="389" 
d="M76 0l256 1442h41l-256 -1442h-41z" />
    <glyph glyph-name="J" unicode="J" horiz-adv-x="872" 
d="M623 293l202 1149h41l-202 -1149q-24 -133 -123 -220t-246 -87q-159 0 -228.5 98.5t-39.5 269.5h41q-8 -52 -9 -100.5t14.5 -90.5t42 -73t74 -49t111.5 -18q77 0 137 24.5t96.5 66.5t58 86t30.5 93z" />
    <glyph glyph-name="K" unicode="K" horiz-adv-x="1011" 
d="M817 0l-577 688l-123 -688h-41l256 1442h41l-123 -692l823 692h55l-858 -721l602 -721h-55z" />
    <glyph glyph-name="L" unicode="L" horiz-adv-x="808" 
d="M332 1442h41l-248 -1405h553l-8 -37h-594z" />
    <glyph glyph-name="M" unicode="M" horiz-adv-x="1632" 
d="M76 0l248 1401h41l366 -1346l836 1346h41l-248 -1401h-41l229 1300l-809 -1300h-41l-352 1296l-229 -1296h-41z" />
    <glyph glyph-name="N" unicode="N" horiz-adv-x="1325" 
d="M1266 1440h41l-254 -1440h-41l-654 1366l-241 -1366h-41l254 1440h41l655 -1364z" />
    <glyph glyph-name="O" unicode="O" horiz-adv-x="1622" 
d="M1542 877q0 -177 -64.5 -340.5t-174 -285t-264.5 -194.5t-328 -73q-261 0 -417.5 158t-156.5 419q0 176 64.5 339.5t174.5 285.5t266 195t329 73q261 0 416 -158t155 -419zM180 563q0 -251 149 -397t388 -146q164 0 310.5 69.5t249.5 186.5t162.5 274t59.5 327
q0 251 -148.5 395.5t-387.5 144.5q-166 0 -313.5 -70.5t-249.5 -188t-161 -273t-59 -322.5z" />
    <glyph glyph-name="P" unicode="P" horiz-adv-x="1081" 
d="M240 692h323q420 0 481 352q32 175 -50.5 266t-305.5 91h-323zM1085 1044q-70 -395 -530 -395h-324l-114 -649h-41l256 1442h364q237 0 330 -105t59 -293z" />
    <glyph glyph-name="Q" unicode="Q" horiz-adv-x="1622" 
d="M180 563q0 -251 149 -397t388 -146q164 0 310.5 69.5t249.5 186.5t162.5 274t59.5 327q0 251 -148.5 395.5t-387.5 144.5q-166 0 -313.5 -70.5t-249.5 -188t-161 -273t-59 -322.5zM1542 877q0 -280 -151.5 -512t-395.5 -328l375 -342h-72l-356 323q-106 -34 -231 -34
q-261 0 -417.5 158t-156.5 419q0 176 64.5 339.5t174.5 285.5t266 195t329 73q261 0 416 -158t155 -419z" />
    <glyph glyph-name="R" unicode="R" horiz-adv-x="1095" 
d="M1047 1036q64 365 -363 365h-319l-129 -733h323q212 0 334.5 100.5t153.5 267.5zM332 1442h360q237 0 333.5 -108.5t64.5 -297.5q-32 -175 -148 -279t-303 -124l276 -633h-51l-274 629h-37h-324l-112 -629h-41z" />
    <glyph glyph-name="S" unicode="S" horiz-adv-x="1081" 
d="M918 322q-12 -67 -46.5 -126.5t-89.5 -106.5t-136 -75t-177 -28q-105 0 -185 29.5t-127 79.5t-68.5 112.5t-16.5 132.5h41q-2 -40 5 -79t31 -83.5t63 -77.5t107 -55t156 -22q161 0 270 82t132 217q15 84 -2 149.5t-57 107.5t-96.5 74.5t-120 57t-128 48.5t-120.5 56
t-96.5 73.5t-58 105.5t-3.5 147q23 133 141.5 224t306.5 91q94 0 170 -27.5t121 -72t67.5 -97t20.5 -106.5h-41q2 41 -18 85t-59 85.5t-109 68.5t-158 27q-156 0 -267 -74.5t-134 -203.5q-13 -77 4.5 -136t58.5 -97t97.5 -67.5t121 -54t128 -49.5t119.5 -60t96 -80t56 -115
t1 -160z" />
    <glyph glyph-name="T" unicode="T" horiz-adv-x="962" 
d="M190 1405l9 37h880l-8 -37h-420l-248 -1405h-41l248 1405h-420z" />
    <glyph glyph-name="U" unicode="U" horiz-adv-x="1288" 
d="M162 547l160 895h40l-159 -895q-22 -115 -14 -202.5t35.5 -148.5t77.5 -99.5t112.5 -56t140.5 -17.5q97 0 179 28.5t152 88.5t120 163t75 244l160 895h41l-160 -895q-51 -287 -201 -424t-372 -137q-224 0 -330.5 138t-56.5 423z" />
    <glyph glyph-name="V" unicode="V" horiz-adv-x="1267" 
d="M514 0l-295 1442h49l279 -1370l768 1370h49l-809 -1442h-41z" />
    <glyph glyph-name="W" unicode="W" horiz-adv-x="1851" 
d="M360 0l-131 1442h50l120 -1354l660 1354h49l180 -1354l600 1354h49l-643 -1442h-41l-184 1368l-668 -1368h-41z" />
    <glyph glyph-name="X" unicode="X" horiz-adv-x="1024" 
d="M817 0l-287 692l-520 -692h-47l551 731l-295 711h47l283 -682l524 682h47l-555 -721l299 -721h-47z" />
    <glyph glyph-name="Y" unicode="Y" horiz-adv-x="1060" 
d="M520 604l-301 838h49l281 -793l559 793h49l-596 -838l-106 -604h-41z" />
    <glyph glyph-name="Z" unicode="Z" horiz-adv-x="997" 
d="M1063 1442l-8 -41l-1028 -1362h809l-9 -39h-854l9 39l1030 1362h-764l8 41h807z" />
    <glyph glyph-name="bracketleft" unicode="[" horiz-adv-x="477" 
d="M10 -379l404 2292h192l-6 -37h-151l-392 -2218h152l-6 -37h-193z" />
    <glyph glyph-name="backslash" unicode="\" horiz-adv-x="897" 
d="M305 1915l328 -2234h-43l-332 2234h47z" />
    <glyph glyph-name="bracketright" unicode="]" horiz-adv-x="477" 
d="M350 1913h193l-404 -2292h-192l6 37h151l392 2218h-152z" />
    <glyph glyph-name="asciicircum" unicode="^" horiz-adv-x="1130" 
d="M973 356l-266 981l-619 -981h-41l655 1043h25l287 -1043h-41z" />
    <glyph glyph-name="underscore" unicode="_" horiz-adv-x="1091" 
d="M-33 -98l6 37h928l-6 -37h-928z" />
    <glyph glyph-name="grave" unicode="`" horiz-adv-x="546" 
d="M244 1466l8 50l334 -275l-6 -41z" />
    <glyph glyph-name="a" unicode="a" horiz-adv-x="1374" 
d="M123 553q30 173 121.5 302.5t225.5 197t292 67.5q190 0 304 -98.5t134 -253.5l60 338h38l-196 -1106h-39l59 338q-71 -154 -220.5 -253t-340.5 -99q-241 0 -362 153t-76 414zM1161 553q42 237 -72 383.5t-333 146.5q-229 0 -389.5 -142t-202.5 -388q-43 -247 66 -388.5
t337 -141.5q219 0 385.5 146.5t208.5 383.5z" />
    <glyph glyph-name="b" unicode="b" horiz-adv-x="1374" 
d="M252 768q76 156 223.5 254t337.5 98q241 0 362 -153t76 -414q-30 -173 -121.5 -302.5t-225.5 -197t-292 -67.5q-190 0 -303.5 98t-134.5 254l-59 -338h-39l268 1516h39zM1210 553q43 247 -66 388.5t-337 141.5q-219 0 -385.5 -146.5t-208.5 -383.5t72 -383.5t333 -146.5
q229 0 389.5 142t202.5 388z" />
    <glyph glyph-name="c" unicode="c" horiz-adv-x="1286" 
d="M123 553q31 174 123 304t224 196.5t286 66.5q210 0 325.5 -107t112.5 -282h-41q3 163 -107 257.5t-296 94.5q-78 0 -152.5 -19.5t-144.5 -61.5t-127 -103.5t-100 -150t-62 -195.5q-22 -138 -1.5 -238t80 -165t140 -96t178.5 -31q186 0 331 94.5t200 257.5h41
q-60 -175 -214 -282t-364 -107q-235 0 -356.5 152.5t-75.5 414.5z" />
    <glyph glyph-name="d" unicode="d" horiz-adv-x="1374" 
d="M123 553q30 173 121.5 302.5t225.5 197t292 67.5q190 0 304 -98.5t134 -253.5l131 748h39l-268 -1516h-39l61 340q-72 -156 -222 -255t-341 -99q-241 0 -362 153t-76 414zM1161 553q42 237 -72 383.5t-333 146.5q-229 0 -389.5 -142t-202.5 -388q-43 -247 66 -388.5
t337 -141.5q219 0 385.5 146.5t208.5 383.5z" />
    <glyph glyph-name="e" unicode="e" horiz-adv-x="1286" 
d="M750 1083q-97 0 -189 -31.5t-173 -92t-139.5 -161t-80.5 -227.5h962q28 133 10 230t-77 159.5t-138.5 92.5t-174.5 30zM1133 375q-60 -175 -214 -282t-364 -107q-235 0 -356.5 152.5t-75.5 414.5q31 174 123 304t224 196.5t286 66.5q122 0 214 -41.5t141 -110t67 -151.5
t2 -172q-16 -82 -23 -110h-997q-21 -128 3 -228.5t82.5 -161t139 -91.5t176.5 -31q186 0 331 94.5t200 257.5h41z" />
    <glyph glyph-name="f" unicode="f" horiz-adv-x="651" 
d="M123 0l188 1063h-180l8 43h178l15 78q30 168 127 250t291 82l-9 -41q-178 0 -259.5 -68.5t-108.5 -222.5l-15 -78h320l-8 -43h-318l-188 -1063h-41z" />
    <glyph glyph-name="g" unicode="g" horiz-adv-x="1374" 
d="M123 553q30 173 121.5 302.5t225.5 197t292 67.5q190 0 304 -98t134 -250l60 334h38l-202 -1147q-27 -154 -117.5 -270t-210.5 -173t-250 -57q-199 0 -314 97.5t-136 263.5h41q20 -149 125 -236.5t290 -87.5q126 0 238 55.5t191 162t104 245.5l65 377
q-71 -153 -220.5 -251.5t-340.5 -98.5q-241 0 -362 153t-76 414zM1161 553q42 237 -72 383.5t-333 146.5q-229 0 -389.5 -142t-202.5 -388q-43 -247 66 -388.5t337 -141.5q219 0 385.5 146.5t208.5 383.5z" />
    <glyph glyph-name="h" unicode="h" horiz-adv-x="1257" 
d="M76 0l268 1516h41l-125 -701q67 154 198.5 234.5t293.5 80.5q93 0 166 -27.5t125.5 -86.5t69.5 -151t-3 -220l-115 -645h-39l115 649q39 216 -49.5 330.5t-276.5 114.5q-198 0 -339 -128t-185 -378v2l-104 -590h-41z" />
    <glyph glyph-name="i" unicode="i" horiz-adv-x="389" 
d="M76 0l196 1106h41l-196 -1106h-41zM342 1389q-23 0 -35 15t-8 40q4 26 21.5 40.5t39.5 14.5q23 0 36.5 -15t9.5 -40t-22.5 -40t-41.5 -15z" />
    <glyph glyph-name="j" unicode="j" horiz-adv-x="409" 
d="M362 1389q-23 0 -35 15t-8 40t21.5 40t40.5 15t36 -15t9 -40t-22.5 -40t-41.5 -15zM293 1106h41l-250 -1417q-18 -100 -77 -154.5t-173 -54.5h-74l7 41h73q90 0 138.5 39.5t66.5 140.5z" />
    <glyph glyph-name="k" unicode="k" horiz-adv-x="808" 
d="M76 0l268 1516h41l-162 -916l590 506h59l-641 -549l453 -557h-57l-418 518l-92 -518h-41z" />
    <glyph glyph-name="l" unicode="l" horiz-adv-x="389" 
d="M76 0l268 1516h41l-268 -1516h-41z" />
    <glyph glyph-name="m" unicode="m" horiz-adv-x="2054" 
d="M1753 0l115 649q39 216 -43 330.5t-260 114.5q-181 0 -318 -126t-186 -366l-107 -602h-39l115 649q39 216 -43 330.5t-260 114.5q-119 0 -219 -52.5t-176 -165.5t-109 -274l-106 -602h-41l196 1106h41l-51 -293q69 159 194 238t277 79q157 0 252 -87t96 -263
q66 175 197.5 262.5t292.5 87.5q88 0 157.5 -27.5t118.5 -86.5t64.5 -151t-4.5 -220l-115 -645h-39z" />
    <glyph glyph-name="n" unicode="n" horiz-adv-x="1257" 
d="M956 0l115 649q39 216 -49.5 330.5t-276.5 114.5q-197 0 -338 -127t-184 -373l-106 -594h-41l196 1106h41l-51 -289q67 154 197.5 233.5t292.5 79.5q93 0 166 -27.5t125.5 -86.5t69.5 -151t-3 -220l-115 -645h-39z" />
    <glyph glyph-name="o" unicode="o" horiz-adv-x="1325" 
d="M1212 682q0 -141 -48.5 -268.5t-132.5 -222t-205.5 -150t-260.5 -55.5q-204 0 -328 117t-124 321q0 141 48.5 268.5t133 222t206.5 150t261 55.5q204 0 327 -116t123 -322zM154 428q0 -101 33.5 -180.5t91.5 -127.5t132 -72.5t160 -24.5q176 0 314.5 91t212 240t73.5 326
q0 101 -33 180t-91 126.5t-131.5 72t-159.5 24.5q-132 0 -246 -53.5t-191.5 -143.5t-121 -209t-43.5 -249z" />
    <glyph glyph-name="p" unicode="p" horiz-adv-x="1374" 
d="M252 768q71 154 220.5 253t340.5 99q241 0 362 -153t76 -414q-30 -173 -121.5 -302.5t-225.5 -197t-292 -67.5q-190 0 -304 98.5t-134 253.5l-149 -858h-39l286 1626h39zM1210 553q43 247 -66 388.5t-337 141.5q-219 0 -385.5 -146.5t-208.5 -383.5t72 -383.5t333 -146.5
q229 0 389.5 142t202.5 388z" />
    <glyph glyph-name="q" unicode="q" horiz-adv-x="1374" 
d="M123 553q30 173 121.5 302.5t225.5 197t292 67.5q190 0 304 -98.5t134 -253.5l60 338h38l-286 -1626h-39l149 858q-71 -154 -220.5 -253t-340.5 -99q-241 0 -362 153t-76 414zM1161 553q42 237 -72 383.5t-333 146.5q-229 0 -389.5 -142t-202.5 -388q-43 -247 66 -388.5
t337 -141.5q219 0 385.5 146.5t208.5 383.5z" />
    <glyph glyph-name="r" unicode="r" horiz-adv-x="692" 
d="M117 0h-41l196 1106h41l-47 -270q115 294 488 294l-9 -45h-18q-62 0 -120.5 -12t-118.5 -42t-108.5 -75.5t-87 -118t-56.5 -163.5z" />
    <glyph glyph-name="s" unicode="s" horiz-adv-x="989" 
d="M797 289q0 -139 -110 -221t-286 -82q-165 0 -258 74t-84 223h41q-9 -122 69 -191t234 -69q164 0 258.5 76t94.5 190q0 50 -20.5 88.5t-54.5 63.5t-78.5 45t-93.5 36.5t-98 33.5t-93.5 40t-78.5 52.5t-54.5 75.5t-20.5 105q0 128 107.5 209.5t265.5 81.5q103 0 184 -38.5
t123.5 -111.5t29.5 -167h-40q12 84 -28 149t-113 98t-163 33q-139 0 -232 -69t-93 -185q0 -59 25.5 -104t67 -71t95 -49t108.5 -38.5t108.5 -39.5t95 -52t67 -75.5t25.5 -110.5z" />
    <glyph glyph-name="t" unicode="t" horiz-adv-x="692" 
d="M174 291l137 774h-180l8 41h180l50 283h41l-50 -283h349l-9 -41h-348l-137 -774q-26 -146 16.5 -198t171.5 -52h117l-8 -41h-121q-143 0 -193.5 66t-23.5 225z" />
    <glyph glyph-name="u" unicode="u" horiz-adv-x="1257" 
d="M1182 1106l-197 -1106h-41l53 299q-65 -157 -196 -238t-293 -81q-93 0 -166.5 27.5t-126.5 86.5t-70.5 151t2.5 220l115 641h39l-115 -645q-37 -216 51.5 -330.5t276.5 -114.5q198 0 338.5 128t183.5 378v-4l105 588h41z" />
    <glyph glyph-name="v" unicode="v" horiz-adv-x="1054" 
d="M139 1106h45l260 -1034l623 1034h45l-668 -1106h-30z" />
    <glyph glyph-name="w" unicode="w" horiz-adv-x="1644" 
d="M291 0l-152 1106h45l142 -1022l577 1022h35l217 -1022l502 1022h45l-545 -1106h-31l-219 1032l-585 -1032h-31z" />
    <glyph glyph-name="x" unicode="x" horiz-adv-x="851" 
d="M664 0l-246 524l-430 -524h-45l456 565l-252 541h50l237 -510l420 510h45l-446 -549l260 -557h-49z" />
    <glyph glyph-name="y" unicode="y" horiz-adv-x="1030" 
d="M414 -4l-275 1110h45l265 -1047l593 1047h45l-917 -1626h-49z" />
    <glyph glyph-name="z" unicode="z" horiz-adv-x="833" 
d="M850 1106l-8 -37l-828 -1032h668l-8 -37h-711l8 37l826 1032h-625l8 37h670z" />
    <glyph glyph-name="braceleft" unicode="{" horiz-adv-x="604" 
d="M301 535q0 77 -37.5 121t-148.5 81l8 49q79 24 133 56t84 73t44 78.5t24 91.5q15 84 15.5 260.5t18.5 274.5q48 283 334 283h64l-6 -37h-64q-119 0 -192 -58t-95 -188q-19 -105 -20.5 -284.5t-13.5 -250.5q-47 -270 -293 -321v-4q100 -35 143 -85t43 -140
q0 -74 -42.5 -213.5l-85 -279t-42.5 -214.5q0 -170 209 -170h63l-6 -37h-63q-244 0 -244 207q0 73 42.5 214.5t85 282t42.5 210.5z" />
    <glyph glyph-name="bar" unicode="|" horiz-adv-x="389" 
d="M358 1593h41l-313 -1769h-41z" />
    <glyph glyph-name="braceright" unicode="}" horiz-adv-x="604" 
d="M563 786l-8 -49q-67 -20 -117.5 -50t-79 -58.5t-48 -66.5t-27 -63.5t-13.5 -60.5q-15 -83 -15.5 -259.5t-18.5 -274.5q-51 -283 -334 -283h-64l6 37h64q119 0 192 58t95 188q19 105 20.5 284t13.5 250q21 120 97.5 205.5t208.5 116.5v4q-121 31 -166.5 116t-24.5 205
q13 71 74.5 250.5t79.5 284.5q22 130 -30 188t-171 58h-64l7 37h63q138 0 199.5 -67.5t36.5 -215.5q-18 -97 -78.5 -274t-75.5 -261q-4 -24 -6 -42t-2 -45t5.5 -47.5t18 -46t33 -45t53.5 -39t76 -34.5z" />
    <glyph glyph-name="asciitilde" unicode="~" horiz-adv-x="843" 
d="M86 571q31 83 85 132t128 49q37 0 70.5 -14t59 -34.5t50 -41t54.5 -34.5t63 -14q51 0 94.5 40t65.5 98h41q-31 -83 -85 -132t-128 -49q-45 0 -86.5 21.5t-68.5 47.5t-65.5 47.5t-78.5 21.5q-51 0 -93.5 -40t-64.5 -98h-41z" />
    <glyph glyph-name="uni00A0" unicode="&#xa0;" horiz-adv-x="593" 
 />
    <glyph glyph-name="exclamdown" unicode="&#xa1;" horiz-adv-x="524" 
d="M330 809l-193 -1120h-49l205 1120h37zM301 1079q4 25 22.5 40.5t41.5 15.5t35 -15.5t8 -40.5t-22 -40t-42 -15q-23 0 -35 15t-8 40z" />
    <glyph glyph-name="cent" unicode="&#xa2;" horiz-adv-x="1204" 
d="M1061 436q-60 -175 -201.5 -282t-331.5 -107l-41 -237h-41l43 239q-201 11 -303 146t-63 358q39 222 189 357t354 147l39 219h40l-38 -217q192 -1 295 -107.5t100 -281.5h-41q3 163 -96.5 257.5t-268.5 94.5q-90 0 -174 -28.5t-157.5 -84t-126.5 -147.5t-74 -209t0 -209
t75.5 -147.5t128.5 -84t164 -28.5q168 0 300.5 94.5t187.5 257.5h41z" />
    <glyph glyph-name="sterling" unicode="&#xa3;" horiz-adv-x="1105" 
d="M330 1073q28 166 153 274.5t299 108.5q180 0 271 -110.5t82 -278.5h-41q12 154 -74.5 253t-243.5 99q-53 0 -104.5 -12.5t-100.5 -40t-89 -67t-69 -98t-42 -128.5q-4 -22 -6.5 -44t-2.5 -45t-0.5 -40t2.5 -43t4 -38.5t6.5 -41t7 -37t8 -40t7.5 -37.5h394l-7 -35h-381
q25 -145 9 -248q-19 -110 -76.5 -197.5t-163.5 -185.5h770l-8 -41h-805v39q52 53 68.5 70.5t56.5 63.5t56 75t35.5 74t27.5 92q18 101 -13 258h-237l6 35h225q-13 62 -17.5 88t-11.5 80t-5.5 101t10.5 97z" />
    <glyph glyph-name="currency" unicode="&#xa4;" horiz-adv-x="1026" 
d="M819 772q25 141 -39 228t-174 87q-116 0 -205.5 -85.5t-115.5 -229.5q-26 -146 34 -230.5t177 -84.5q110 0 204 86t119 229zM817 389l-100 121q-107 -90 -228 -90q-131 0 -198 92l-144 -123l-24 27l149 123q-52 93 -28 233q24 139 112 234l-106 127l33 26l102 -125
q104 90 227 90q121 0 195 -90l145 125l25 -26l-152 -125q59 -97 35 -236q-23 -134 -115 -233l105 -123z" />
    <glyph glyph-name="yen" unicode="&#xa5;" horiz-adv-x="1153" 
d="M571 604l-24 68h-373l6 37h355l-265 733h49l281 -793l559 793h49l-522 -733h354l-6 -37h-375l-47 -68l-24 -135h411l-8 -41h-409l-76 -428h-41l76 428h-410l8 41h408z" />
    <glyph glyph-name="brokenbar" unicode="&#xa6;" horiz-adv-x="389" 
d="M172 543h41l-127 -719h-41zM272 877h-41l127 716h41z" />
    <glyph glyph-name="section" unicode="&#xa7;" horiz-adv-x="1159" 
d="M297 1270q21 115 129 187.5t276 72.5q180 0 280.5 -89.5t94.5 -250.5h-41q4 53 -11.5 103.5t-52 96.5t-108 74.5t-168.5 28.5q-146 0 -242 -56t-116 -167q-19 -102 50.5 -166.5t250.5 -108.5q84 -20 142 -38.5t119 -50t94 -69t49.5 -94.5t3.5 -129q-12 -68 -55 -131.5
t-110 -111.5t-163.5 -72t-204.5 -14l-2 -9q66 -13 116 -26.5t106.5 -39t90.5 -57t52.5 -80t7.5 -108.5q-21 -117 -128 -191.5t-270 -74.5q-183 0 -286 89.5t-97 250.5h41q-2 -58 14 -109t54 -96t110.5 -71.5t172.5 -26.5q141 0 234.5 57.5t113.5 171.5q19 100 -51 162
t-252 106q-106 26 -175 51t-134.5 68t-89.5 108t-9 154q13 69 56 132t110 111.5t163.5 72.5t205.5 14v8q-63 13 -111 27t-105 40.5t-92 58.5t-54.5 81.5t-8.5 110.5zM1006 614q25 136 -73 218.5t-296 82.5q-193 0 -316.5 -87.5t-146.5 -213.5q-24 -136 73.5 -218.5
t295.5 -82.5q193 0 317 87.5t146 213.5z" />
    <glyph glyph-name="dieresis" unicode="&#xa8;" horiz-adv-x="653" 
d="M319 1284q-23 0 -36 14.5t-13 36.5q0 28 21.5 50t50.5 22q21 0 34 -14.5t13 -36.5q0 -28 -21 -50t-49 -22zM594 1284q-23 0 -36 14.5t-13 36.5q0 28 21 50t50 22q21 0 34.5 -14t13.5 -35q0 -29 -21 -51.5t-49 -22.5z" />
    <glyph glyph-name="copyright" unicode="&#xa9;" horiz-adv-x="1644" 
d="M979 1438q205 0 348.5 -91t202 -254.5t20.5 -371.5q-37 -208 -152.5 -371t-290.5 -254.5t-380 -91.5t-349 91t-203.5 254.5t-22.5 371.5q38 208 154.5 371t292 254.5t380.5 91.5zM973 1401q-149 0 -282.5 -51.5t-234 -142.5t-169 -216t-94.5 -270q-18 -117 -9 -220
t52.5 -187.5t111.5 -145t166.5 -94t218.5 -33.5q148 0 281 51.5t233 142.5t168.5 216t93.5 270q35 194 -17 348t-187 243t-332 89zM944 1208q-118 0 -225 -53.5t-189 -165.5t-108 -266q-20 -121 -2 -213t69 -153.5t123 -92.5t160 -31q145 0 275 83t198 235h-43
q-65 -133 -180 -205t-242 -72q-164 0 -259.5 117.5t-59.5 327.5q19 108 67.5 195.5t114 141.5t141.5 82.5t154 28.5q127 0 216.5 -71.5t107.5 -204.5h43q-14 151 -115 234t-246 83z" />
    <glyph glyph-name="ordfeminine" unicode="&#xaa;" horiz-adv-x="886" 
d="M174 1081q29 165 138 268t259 103q119 0 188.5 -60t78.5 -163l36 211h41l-124 -715h-41l36 209q-47 -104 -136 -163.5t-208 -59.5q-150 0 -223 102.5t-45 267.5zM811 1081q28 151 -41 242.5t-205 91.5q-128 0 -225.5 -91t-124.5 -243q-26 -152 40 -242.5t194 -90.5
q136 0 236 91t126 242z" />
    <glyph glyph-name="guillemotleft" unicode="&#xab;" horiz-adv-x="765" 
d="M152 604l161 -358h-55l-158 358l283 359h55zM449 604l161 -358h-55l-158 358l283 359h55z" />
    <glyph glyph-name="logicalnot" unicode="&#xac;" horiz-adv-x="1449" 
d="M170 827l6 41h1237l-61 -346h-37l55 305h-1200z" />
    <glyph glyph-name="uni00AD" unicode="&#xad;" horiz-adv-x="909" 
d="M-35 760l6 37h746l-6 -37h-746z" />
    <glyph glyph-name="registered" unicode="&#xae;" horiz-adv-x="995" 
d="M649 1417q-149 0 -260.5 -100.5t-138.5 -251.5t50 -251.5t226 -100.5t261 100.5t139 251.5t-50.5 251.5t-226.5 100.5zM518 674q-165 0 -252 112.5t-57 278.5t156.5 278.5t291.5 112.5t252.5 -112.5t57.5 -278.5t-157 -278.5t-292 -112.5zM774 1163q-11 -57 -53 -90
t-105 -33h-2l107 -192l-45 -2l-107 194h-82l-34 -194h-41l77 438h170q63 0 93.5 -31.5t21.5 -89.5zM649 1245h-125l-30 -166h124q98 0 115 84q7 42 -16 62t-68 20z" />
    <glyph glyph-name="macron" unicode="&#xaf;" horiz-adv-x="796" 
d="M223 1350l6 36h633l-6 -36h-633z" />
    <glyph glyph-name="degree" unicode="&#xb0;" horiz-adv-x="729" 
d="M152 1063q28 158 128 255t236 97q137 0 203.5 -97t38.5 -255t-128.5 -255t-236.5 -97t-202.5 97t-38.5 255zM717 1063q26 148 -30 231.5t-177 83.5t-206 -83.5t-111 -231.5t29.5 -231.5t176.5 -83.5t206.5 83.5t111.5 231.5z" />
    <glyph glyph-name="plusminus" unicode="&#xb1;" horiz-adv-x="1206" 
d="M16 186l9 37h1042l-8 -37h-1043zM713 1300h41l-82 -462h504l-9 -37h-501l-82 -463h-41l82 463h-500l8 37h498z" />
    <glyph glyph-name="twosuperior" unicode="&#xb2;" horiz-adv-x="616" 
d="M201 1225q24 96 91.5 159.5t174.5 63.5q90 0 136.5 -53.5t29.5 -145.5q-16 -89 -73.5 -159.5t-166.5 -159.5l-209 -172h387l-8 -37h-452l4 20l274 232q45 39 67 59.5t56 58t53 76t27 82.5q14 82 -23.5 122t-107.5 40q-82 0 -138 -47.5t-81 -138.5h-41z" />
    <glyph glyph-name="threesuperior" unicode="&#xb3;" horiz-adv-x="618" 
d="M211 1268q28 80 96 130t168 50q93 0 145 -54.5t37 -142.5q-11 -63 -54 -108.5t-114 -63.5v-4q61 -18 91 -63t18 -113q-13 -76 -81.5 -132t-176.5 -56q-207 0 -195 198h41q-6 -89 37 -125t123 -36q88 0 143.5 40.5t67.5 110.5q13 74 -33.5 116t-130.5 42h-125l8 37h132
q81 0 138 41.5t70 115.5q12 70 -28 113t-119 43q-162 0 -217 -139h-41z" />
    <glyph glyph-name="acute" unicode="&#xb4;" horiz-adv-x="546" 
d="M203 1241l432 275l-8 -50l-430 -266z" />
    <glyph glyph-name="uni00B5" unicode="&#xb5;" horiz-adv-x="1267" 
d="M1192 1106l-197 -1106h-41l56 309q-67 -166 -195 -250t-274 -84q-70 0 -130 16.5t-113 52.5t-87.5 102.5t-42.5 158.5l-143 -825h-39l286 1626h39l-100 -567q-22 -135 -9 -234t59.5 -164.5t118.5 -97t167 -31.5q186 0 320 127t177 373l107 594h41z" />
    <glyph glyph-name="paragraph" unicode="&#xb6;" horiz-adv-x="1001" 
d="M672 1401h305l-248 -1401h-41l242 1364h-221l-242 -1364h-41l109 608h-3q-236 0 -339.5 106.5t-71.5 289.5q31 184 174.5 290.5t376.5 106.5z" />
    <glyph glyph-name="periodcentered" unicode="&#xb7;" horiz-adv-x="231" 
d="M84 737q-4 -25 -22 -40t-42 -15q-23 0 -35 15t-8 40t22.5 40.5t41.5 15.5t35 -15.5t8 -40.5z" />
    <glyph glyph-name="cedilla" unicode="&#xb8;" horiz-adv-x="509" 
d="M76 14l-35 -196q127 7 185 -35t44 -127q-14 -79 -78.5 -127.5t-168.5 -48.5h-129l6 41h123q182 0 206 135q10 56 -26.5 90.5t-132.5 34.5h-76l41 233h41z" />
    <glyph glyph-name="onesuperior" unicode="&#xb9;" horiz-adv-x="315" 
d="M221 721l121 684h-111l9 37h151l-129 -721h-41z" />
    <glyph glyph-name="ordmasculine" unicode="&#xba;" horiz-adv-x="843" 
d="M174 1077q29 166 144 270.5t264 104.5t227 -104.5t49 -270.5t-143.5 -270.5t-263.5 -104.5t-227.5 104.5t-49.5 270.5zM817 1077q28 156 -41.5 245t-200.5 89t-231.5 -89t-128.5 -245q-27 -156 42 -245t200 -89t232 89t128 245z" />
    <glyph glyph-name="guillemotright" unicode="&#xbb;" horiz-adv-x="765" 
d="M403 246h-57l287 358l-162 359h57l154 -359zM106 246h-57l287 358l-162 359h57l154 -359z" />
    <glyph glyph-name="onequarter" unicode="&#xbc;" horiz-adv-x="1048" 
d="M18 0l969 1442h41l-969 -1442h-41zM791 197h112l-6 -41h-113l-28 -156h-41l28 156h-352l6 37l457 534h31zM446 197h304l77 436zM262 721l121 684h-111l9 37h151l-129 -721h-41z" />
    <glyph glyph-name="onehalf" unicode="&#xbd;" horiz-adv-x="1214" 
d="M-16 0l968 1442h41l-968 -1442h-41zM268 721l121 684h-110l8 37h151l-129 -721h-41zM799 502q24 96 91.5 159.5t174.5 63.5q90 0 136.5 -53.5t29.5 -145.5q-16 -89 -73.5 -159.5t-166.5 -159.5l-209 -172h387l-8 -37h-452l4 20l274 232q45 39 67 59.5t56 58t53 76
t27 82.5q14 82 -23.5 122t-107.5 40q-82 0 -138 -47.5t-81 -138.5h-41z" />
    <glyph glyph-name="threequarters" unicode="&#xbe;" horiz-adv-x="1089" 
d="M121 0l969 1442h40l-968 -1442h-41zM831 197h113l-6 -41h-113l-28 -156h-41l28 156h-352l6 37l457 534h31zM487 197h304l77 436zM246 1268q28 80 96 130t168 50q93 0 145 -54.5t37 -142.5q-11 -63 -54 -108.5t-114 -63.5v-4q61 -18 91 -63t18 -113q-13 -76 -81.5 -132
t-176.5 -56q-207 0 -195 198h41q-6 -89 37 -125t123 -36q88 0 143.5 40.5t67.5 110.5q13 74 -33.5 116t-130.5 42h-125l8 37h131q81 0 138.5 41.5t70.5 115.5q12 70 -28 113t-119 43q-162 0 -217 -139h-41z" />
    <glyph glyph-name="questiondown" unicode="&#xbf;" horiz-adv-x="946" 
d="M819 31q-33 -181 -170.5 -284t-320.5 -103q-188 0 -289.5 112t-69.5 291q22 122 76 209.5t136.5 138t181.5 73.5t223 24l57 296h33l-55 -333h-33q-67 0 -123 -6t-119.5 -20.5t-114.5 -44t-96.5 -73t-77.5 -111t-47 -153.5q-29 -167 62 -266.5t262 -99.5q174 0 294.5 95.5
t149.5 254.5h41zM649 1049q4 25 22.5 40t41.5 15t35 -15t8 -40t-22.5 -40.5t-41.5 -15.5t-35 15.5t-8 40.5z" />
    <glyph glyph-name="Agrave" unicode="&#xc0;" horiz-adv-x="1230" 
d="M1024 0l-80 397h-713l-221 -397h-47l782 1399h41l285 -1399h-47zM610 1759l8 49l334 -274l-6 -41zM936 434l-182 899l-502 -899h684z" />
    <glyph glyph-name="Aacute" unicode="&#xc1;" horiz-adv-x="1230" 
d="M1024 0l-80 397h-713l-221 -397h-47l782 1399h41l285 -1399h-47zM569 1534l432 274l-8 -49l-430 -266zM936 434l-182 899l-502 -899h684z" />
    <glyph glyph-name="Acircumflex" unicode="&#xc2;" horiz-adv-x="1230" 
d="M1024 0l-80 397h-713l-221 -397h-47l782 1399h41l285 -1399h-47zM1053 1604l-6 -41l-224 166l-282 -166l6 41l284 165zM936 434l-182 899l-502 -899h684z" />
    <glyph glyph-name="Atilde" unicode="&#xc3;" horiz-adv-x="1230" 
d="M1024 0l-80 397h-713l-221 -397h-47l782 1399h41l285 -1399h-47zM592 1530q19 63 57.5 99t89.5 36q34 0 61 -16t42.5 -35t41.5 -35t58 -16q34 0 64 25.5t43 70.5h36q-12 -56 -54.5 -94.5t-94.5 -38.5q-36 0 -65 16t-45.5 35t-41.5 35t-53 16q-73 0 -102 -98h-37zM936 434
l-182 899l-502 -899h684z" />
    <glyph glyph-name="Adieresis" unicode="&#xc4;" horiz-adv-x="1230" 
d="M1024 0l-80 397h-713l-221 -397h-47l782 1399h41l285 -1399h-47zM662 1577q-23 0 -36.5 14.5t-13.5 36.5q0 28 21.5 50t50.5 22q21 0 34 -14.5t13 -36.5q0 -28 -21 -50t-48 -22zM936 1577q-23 0 -36 14.5t-13 36.5q0 28 21 50t50 22q21 0 34.5 -14t13.5 -35
q0 -29 -21 -51.5t-49 -22.5zM936 434l-182 899l-502 -899h684z" />
    <glyph glyph-name="Aring" unicode="&#xc5;" horiz-adv-x="1230" 
d="M1024 0l-80 397h-713l-221 -397h-47l782 1399h41l285 -1399h-47zM969 1737q12 67 -22 107t-97 40t-109.5 -39.5t-58.5 -107.5t21 -108t96 -40t110.5 40t59.5 108zM641 1737q15 84 77 134t140 50t122.5 -50t29.5 -134t-77 -134.5t-140 -50.5t-122.5 50.5t-29.5 134.5z
M936 434l-182 899l-502 -899h684z" />
    <glyph glyph-name="AE" unicode="&#xc6;" horiz-adv-x="1714" 
d="M1051 1366l-738 -932h574zM1761 1405h-663l-117 -666h602l-6 -37h-602l-117 -665h664l-9 -37h-704l70 397h-594l-316 -397h-47l1143 1442h704z" />
    <glyph glyph-name="Ccedilla" unicode="&#xc7;" horiz-adv-x="1574" 
d="M152 719q38 214 154 382.5t285.5 261.5t362.5 93q251 0 395.5 -116.5t184.5 -323.5h-41q-34 183 -171.5 293t-373.5 110q-104 0 -204 -30.5t-189 -90.5t-161.5 -143.5t-124 -195.5t-74.5 -240q-29 -162 -2.5 -291t96 -219t175.5 -138t236 -48q236 0 413 110t276 291h41
q-105 -191 -272 -305t-390 -131l-31 -170q127 7 185.5 -35t44.5 -127q-14 -79 -79 -127.5t-169 -48.5h-129l6 41h123q183 0 207 135q10 56 -27 90.5t-133 34.5h-76l37 205h-33q-193 0 -330 93t-193 260.5t-19 379.5z" />
    <glyph glyph-name="Egrave" unicode="&#xc8;" horiz-adv-x="980" 
d="M1036 1442l-8 -37h-663l-117 -666h602l-6 -37h-602l-117 -665h663l-8 -37h-704l256 1442h704zM471 1759l8 49l334 -274l-6 -41z" />
    <glyph glyph-name="Eacute" unicode="&#xc9;" horiz-adv-x="980" 
d="M1036 1442l-8 -37h-663l-117 -666h602l-6 -37h-602l-117 -665h663l-8 -37h-704l256 1442h704zM430 1534l432 274l-8 -49l-430 -266z" />
    <glyph glyph-name="Ecircumflex" unicode="&#xca;" horiz-adv-x="980" 
d="M1036 1442l-8 -37h-663l-117 -666h602l-6 -37h-602l-117 -665h663l-8 -37h-704l256 1442h704zM913 1604l-6 -41l-223 166l-283 -166l7 41l284 165z" />
    <glyph glyph-name="Edieresis" unicode="&#xcb;" horiz-adv-x="980" 
d="M1036 1442l-8 -37h-663l-117 -666h602l-6 -37h-602l-117 -665h663l-8 -37h-704l256 1442h704zM522 1577q-23 0 -36 14.5t-13 36.5q0 28 21.5 50t50.5 22q21 0 34 -14.5t13 -36.5q0 -28 -21 -50t-49 -22zM797 1577q-23 0 -36 14.5t-13 36.5q0 28 21 50t50 22q21 0 34 -14
t13 -35q0 -29 -20.5 -51.5t-48.5 -22.5z" />
    <glyph glyph-name="Igrave" unicode="&#xcc;" horiz-adv-x="389" 
d="M76 0l256 1442h41l-256 -1442h-41zM188 1759l9 49l333 -274l-6 -41z" />
    <glyph glyph-name="Iacute" unicode="&#xcd;" horiz-adv-x="389" 
d="M76 0l256 1442h41l-256 -1442h-41zM147 1534l433 274l-9 -49l-430 -266z" />
    <glyph glyph-name="Icircumflex" unicode="&#xce;" horiz-adv-x="389" 
d="M76 0l256 1442h41l-256 -1442h-41zM631 1604l-6 -41l-224 166l-282 -166l6 41l285 165z" />
    <glyph glyph-name="Idieresis" unicode="&#xcf;" horiz-adv-x="389" 
d="M76 0l256 1442h41l-256 -1442h-41zM240 1577q-23 0 -36.5 14.5t-13.5 36.5q0 28 21.5 50t50.5 22q21 0 34 -14.5t13 -36.5q0 -28 -21 -50t-48 -22zM514 1577q-23 0 -36 14.5t-13 36.5q0 28 21.5 50t50.5 22q21 0 34 -14t13 -35q0 -29 -21 -51.5t-49 -22.5z" />
    <glyph glyph-name="Eth" unicode="&#xd0;" horiz-adv-x="1519" 
d="M793 1442q373 0 533.5 -188t98.5 -533q-61 -345 -288 -533t-600 -188h-379l125 702h-236l6 37h236l125 703h379zM207 37h338q355 0 568.5 180t270.5 504q58 323 -93 503.5t-507 180.5h-338l-116 -666h477l-6 -37h-477z" />
    <glyph glyph-name="Ntilde" unicode="&#xd1;" horiz-adv-x="1325" 
d="M1266 1440h41l-254 -1440h-41l-654 1366l-241 -1366h-41l254 1440h41l655 -1364zM639 1530q19 63 57.5 99t89.5 36q34 0 61 -16t42.5 -35t41.5 -35t58 -16q34 0 64 25.5t43 70.5h37q-12 -56 -55 -94.5t-95 -38.5q-36 0 -65 16t-45.5 35t-41.5 35t-53 16q-73 0 -102 -98
h-37z" />
    <glyph glyph-name="Ograve" unicode="&#xd2;" horiz-adv-x="1622" 
d="M1542 877q0 -177 -64.5 -340.5t-174 -285t-264.5 -194.5t-328 -73q-261 0 -417.5 158t-156.5 419q0 176 64.5 339.5t174.5 285.5t266 195t329 73q261 0 416 -158t155 -419zM180 563q0 -251 149 -397t388 -146q164 0 310.5 69.5t249.5 186.5t162.5 274t59.5 327
q0 251 -148.5 395.5t-387.5 144.5q-166 0 -313.5 -70.5t-249.5 -188t-161 -273t-59 -322.5zM827 1759l9 49l333 -274l-6 -41z" />
    <glyph glyph-name="Oacute" unicode="&#xd3;" horiz-adv-x="1622" 
d="M1542 877q0 -177 -64.5 -340.5t-174 -285t-264.5 -194.5t-328 -73q-261 0 -417.5 158t-156.5 419q0 176 64.5 339.5t174.5 285.5t266 195t329 73q261 0 416 -158t155 -419zM180 563q0 -251 149 -397t388 -146q164 0 310.5 69.5t249.5 186.5t162.5 274t59.5 327
q0 251 -148.5 395.5t-387.5 144.5q-166 0 -313.5 -70.5t-249.5 -188t-161 -273t-59 -322.5zM786 1534l433 274l-9 -49l-430 -266z" />
    <glyph glyph-name="Ocircumflex" unicode="&#xd4;" horiz-adv-x="1622" 
d="M1542 877q0 -177 -64.5 -340.5t-174 -285t-264.5 -194.5t-328 -73q-261 0 -417.5 158t-156.5 419q0 176 64.5 339.5t174.5 285.5t266 195t329 73q261 0 416 -158t155 -419zM180 563q0 -251 149 -397t388 -146q164 0 310.5 69.5t249.5 186.5t162.5 274t59.5 327
q0 251 -148.5 395.5t-387.5 144.5q-166 0 -313.5 -70.5t-249.5 -188t-161 -273t-59 -322.5zM1270 1604l-6 -41l-224 166l-282 -166l6 41l285 165z" />
    <glyph glyph-name="Otilde" unicode="&#xd5;" horiz-adv-x="1622" 
d="M1542 877q0 -177 -64.5 -340.5t-174 -285t-264.5 -194.5t-328 -73q-261 0 -417.5 158t-156.5 419q0 176 64.5 339.5t174.5 285.5t266 195t329 73q261 0 416 -158t155 -419zM180 563q0 -251 149 -397t388 -146q164 0 310.5 69.5t249.5 186.5t162.5 274t59.5 327
q0 251 -148.5 395.5t-387.5 144.5q-166 0 -313.5 -70.5t-249.5 -188t-161 -273t-59 -322.5zM809 1530q19 63 57.5 99t89.5 36q34 0 61 -16t42.5 -35t41.5 -35t58 -16q34 0 64 25.5t43 70.5h37q-12 -56 -55 -94.5t-95 -38.5q-36 0 -65 16t-45.5 35t-41.5 35t-53 16
q-73 0 -102 -98h-37z" />
    <glyph glyph-name="Odieresis" unicode="&#xd6;" horiz-adv-x="1622" 
d="M1542 877q0 -177 -64.5 -340.5t-174 -285t-264.5 -194.5t-328 -73q-261 0 -417.5 158t-156.5 419q0 176 64.5 339.5t174.5 285.5t266 195t329 73q261 0 416 -158t155 -419zM180 563q0 -251 149 -397t388 -146q164 0 310.5 69.5t249.5 186.5t162.5 274t59.5 327
q0 251 -148.5 395.5t-387.5 144.5q-166 0 -313.5 -70.5t-249.5 -188t-161 -273t-59 -322.5zM879 1577q-23 0 -36.5 14.5t-13.5 36.5q0 28 21.5 50t50.5 22q21 0 34 -14.5t13 -36.5q0 -28 -21 -50t-48 -22zM1153 1577q-23 0 -36 14.5t-13 36.5q0 28 21.5 50t50.5 22
q21 0 34 -14t13 -35q0 -29 -21 -51.5t-49 -22.5z" />
    <glyph glyph-name="multiply" unicode="&#xd7;" horiz-adv-x="960" 
d="M186 1147l35 29l303 -371l434 369l23 -27l-434 -369l305 -370l-33 -29l-305 371l-434 -369l-23 27l435 368z" />
    <glyph glyph-name="Oslash" unicode="&#xd8;" horiz-adv-x="1622" 
d="M1542 877q0 -177 -64.5 -340.5t-174 -285t-264.5 -194.5t-328 -73q-141 0 -255 49t-190 139l-188 -172h-51l217 199q-107 151 -107 362q0 176 64.5 339.5t174.5 285.5t266 195t329 73q141 0 254.5 -49t187.5 -139l193 176h49l-221 -201q108 -148 108 -364zM180 563
q0 -198 96 -336l1106 1010q-148 180 -419 180q-166 0 -313.5 -70.5t-249.5 -188t-161 -273t-59 -322.5zM717 20q164 0 310.5 69.5t249.5 186.5t162.5 274t59.5 327q0 198 -96 333l-1106 -1009q72 -88 180 -134.5t240 -46.5z" />
    <glyph glyph-name="Ugrave" unicode="&#xd9;" horiz-adv-x="1288" 
d="M162 547l160 895h40l-159 -895q-22 -115 -14 -202.5t35.5 -148.5t77.5 -99.5t112.5 -56t140.5 -17.5q97 0 179 28.5t152 88.5t120 163t75 244l160 895h41l-160 -895q-51 -287 -201 -424t-372 -137q-224 0 -330.5 138t-56.5 423zM637 1759l8 49l334 -274l-6 -41z" />
    <glyph glyph-name="Uacute" unicode="&#xda;" horiz-adv-x="1288" 
d="M162 547l160 895h40l-159 -895q-22 -115 -14 -202.5t35.5 -148.5t77.5 -99.5t112.5 -56t140.5 -17.5q97 0 179 28.5t152 88.5t120 163t75 244l160 895h41l-160 -895q-51 -287 -201 -424t-372 -137q-224 0 -330.5 138t-56.5 423zM596 1534l432 274l-8 -49l-430 -266z" />
    <glyph glyph-name="Ucircumflex" unicode="&#xdb;" horiz-adv-x="1288" 
d="M162 547l160 895h40l-159 -895q-22 -115 -14 -202.5t35.5 -148.5t77.5 -99.5t112.5 -56t140.5 -17.5q97 0 179 28.5t152 88.5t120 163t75 244l160 895h41l-160 -895q-51 -287 -201 -424t-372 -137q-224 0 -330.5 138t-56.5 423zM1079 1604l-6 -41l-223 166l-283 -166
l6 41l285 165z" />
    <glyph glyph-name="Udieresis" unicode="&#xdc;" horiz-adv-x="1288" 
d="M162 547l160 895h40l-159 -895q-22 -115 -14 -202.5t35.5 -148.5t77.5 -99.5t112.5 -56t140.5 -17.5q97 0 179 28.5t152 88.5t120 163t75 244l160 895h41l-160 -895q-51 -287 -201 -424t-372 -137q-224 0 -330.5 138t-56.5 423zM688 1577q-23 0 -36 14.5t-13 36.5
q0 28 21.5 50t50.5 22q21 0 34 -14.5t13 -36.5q0 -28 -21 -50t-49 -22zM963 1577q-23 0 -36.5 14.5t-13.5 36.5q0 28 21.5 50t50.5 22q21 0 34 -14t13 -35q0 -29 -20.5 -51.5t-48.5 -22.5z" />
    <glyph glyph-name="Yacute" unicode="&#xdd;" horiz-adv-x="1060" 
d="M520 604l-301 838h49l281 -793l559 793h49l-596 -838l-106 -604h-41zM485 1534l433 274l-9 -49l-430 -266z" />
    <glyph glyph-name="Thorn" unicode="&#xde;" horiz-adv-x="1081" 
d="M182 369h324q420 0 481 352q32 175 -50 265.5t-306 90.5h-324zM1028 721q-33 -197 -168 -296t-362 -99h-324l-57 -326h-41l256 1442h41l-58 -324h324q237 0 330 -104.5t59 -292.5z" />
    <glyph glyph-name="germandbls" unicode="&#xdf;" horiz-adv-x="1204" 
d="M68 0l200 1143q34 194 159.5 307t311.5 113q158 0 244 -66.5t86 -181.5q0 -60 -23.5 -113.5t-60.5 -93t-82 -75t-90 -68t-82 -64.5t-60.5 -70.5t-23.5 -80.5q0 -55 52.5 -95t183.5 -84q111 -37 163 -94t52 -143q0 -150 -105.5 -251t-267.5 -101q-154 0 -239 95t-76 253
h41q-9 -141 66.5 -226.5t213.5 -85.5q136 0 231 92t95 220q0 75 -50.5 125.5t-158.5 87.5q-135 47 -188.5 91.5t-53.5 115.5q0 48 23.5 91t60.5 77.5t82 67.5t90 68t82 72t60.5 85.5t23.5 103.5q0 94 -76.5 152.5t-218.5 58.5q-168 0 -280.5 -104t-143.5 -279l-200 -1143
h-41z" />
    <glyph glyph-name="agrave" unicode="&#xe0;" horiz-adv-x="1374" 
d="M123 553q30 173 121.5 302.5t225.5 197t292 67.5q190 0 304 -98.5t134 -253.5l60 338h38l-196 -1106h-39l59 338q-71 -154 -220.5 -253t-340.5 -99q-241 0 -362 153t-76 414zM1161 553q42 237 -72 383.5t-333 146.5q-229 0 -389.5 -142t-202.5 -388q-43 -247 66 -388.5
t337 -141.5q219 0 385.5 146.5t208.5 383.5zM637 1466l8 50l334 -275l-6 -41z" />
    <glyph glyph-name="aacute" unicode="&#xe1;" horiz-adv-x="1374" 
d="M123 553q30 173 121.5 302.5t225.5 197t292 67.5q190 0 304 -98.5t134 -253.5l60 338h38l-196 -1106h-39l59 338q-71 -154 -220.5 -253t-340.5 -99q-241 0 -362 153t-76 414zM1161 553q42 237 -72 383.5t-333 146.5q-229 0 -389.5 -142t-202.5 -388q-43 -247 66 -388.5
t337 -141.5q219 0 385.5 146.5t208.5 383.5zM596 1241l432 275l-8 -50l-430 -266z" />
    <glyph glyph-name="acircumflex" unicode="&#xe2;" horiz-adv-x="1374" 
d="M123 553q30 173 121.5 302.5t225.5 197t292 67.5q190 0 304 -98.5t134 -253.5l60 338h38l-196 -1106h-39l59 338q-71 -154 -220.5 -253t-340.5 -99q-241 0 -362 153t-76 414zM1161 553q42 237 -72 383.5t-333 146.5q-229 0 -389.5 -142t-202.5 -388q-43 -247 66 -388.5
t337 -141.5q219 0 385.5 146.5t208.5 383.5zM1079 1311l-6 -41l-223 166l-283 -166l6 41l285 166z" />
    <glyph glyph-name="atilde" unicode="&#xe3;" horiz-adv-x="1374" 
d="M123 553q30 173 121.5 302.5t225.5 197t292 67.5q190 0 304 -98.5t134 -253.5l60 338h38l-196 -1106h-39l59 338q-71 -154 -220.5 -253t-340.5 -99q-241 0 -362 153t-76 414zM1161 553q42 237 -72 383.5t-333 146.5q-229 0 -389.5 -142t-202.5 -388q-43 -247 66 -388.5
t337 -141.5q219 0 385.5 146.5t208.5 383.5zM618 1237q19 63 57.5 99t90.5 36q34 0 61 -16t42.5 -35t41.5 -35t58 -16q34 0 63.5 25.5t42.5 70.5h37q-12 -56 -54.5 -94.5t-94.5 -38.5q-36 0 -65 16t-45.5 35t-41.5 35t-53 16q-74 0 -103 -98h-37z" />
    <glyph glyph-name="adieresis" unicode="&#xe4;" horiz-adv-x="1374" 
d="M123 553q30 173 121.5 302.5t225.5 197t292 67.5q190 0 304 -98.5t134 -253.5l60 338h38l-196 -1106h-39l59 338q-71 -154 -220.5 -253t-340.5 -99q-241 0 -362 153t-76 414zM1161 553q42 237 -72 383.5t-333 146.5q-229 0 -389.5 -142t-202.5 -388q-43 -247 66 -388.5
t337 -141.5q219 0 385.5 146.5t208.5 383.5zM688 1284q-23 0 -36 14.5t-13 36.5q0 28 21.5 50t50.5 22q21 0 34 -14.5t13 -36.5q0 -28 -21 -50t-49 -22zM963 1284q-23 0 -36.5 14.5t-13.5 36.5q0 28 21.5 50t50.5 22q21 0 34 -14t13 -35q0 -29 -20.5 -51.5t-48.5 -22.5z" />
    <glyph glyph-name="aring" unicode="&#xe5;" horiz-adv-x="1374" 
d="M123 553q30 173 121.5 302.5t225.5 197t292 67.5q190 0 304 -98.5t134 -253.5l60 338h38l-196 -1106h-39l59 338q-71 -154 -220.5 -253t-340.5 -99q-241 0 -362 153t-76 414zM1161 553q42 237 -72 383.5t-333 146.5q-229 0 -389.5 -142t-202.5 -388q-43 -247 66 -388.5
t337 -141.5q219 0 385.5 146.5t208.5 383.5zM668 1444q15 84 77 134t140 50t122 -50t29 -134t-77 -134t-140 -50t-122 50t-29 134zM995 1444q12 68 -21.5 107.5t-96.5 39.5t-109.5 -39.5t-58.5 -107.5t20.5 -108t95.5 -40t110.5 40t59.5 108z" />
    <glyph glyph-name="ae" unicode="&#xe6;" horiz-adv-x="2324" 
d="M1788 1083q-97 0 -189 -31.5t-173 -92t-139.5 -161t-80.5 -227.5h963q28 133 10 230t-77.5 159.5t-139 92.5t-174.5 30zM2171 375q-60 -175 -214 -282t-364 -107q-181 0 -299.5 95.5t-128.5 276.5l-63 -358h-39l63 356q-73 -166 -223 -268t-342 -102q-241 0 -362 153
t-76 414q30 173 121.5 302.5t225.5 197t292 67.5q191 0 305 -102t129 -268l64 356h38l-63 -358q72 178 225.5 275t333.5 97q122 0 214 -41.5t141 -110t67 -151.5t2 -172q-13 -67 -29 -110h-991q-21 -128 3 -228t82.5 -161t139 -92t176.5 -31q186 0 331 94.5t200 257.5h41z
M164 553q-43 -247 66 -388.5t337 -141.5q219 0 385.5 146.5t208.5 383.5t-72 383.5t-333 146.5q-229 0 -389.5 -142t-202.5 -388z" />
    <glyph glyph-name="ccedilla" unicode="&#xe7;" horiz-adv-x="1286" 
d="M123 553q31 174 123 304t224 196.5t286 66.5q210 0 325.5 -107t112.5 -282h-41q3 163 -107 257.5t-296 94.5q-78 0 -152.5 -19.5t-144.5 -61.5t-127 -103.5t-100 -150t-62 -195.5q-22 -138 -1.5 -238t80 -165t140 -96t178.5 -31q186 0 331 94.5t200 257.5h41
q-58 -170 -206.5 -276.5t-351.5 -112.5l-30 -168q127 7 185 -35t44 -127q-14 -79 -79 -127.5t-169 -48.5h-129l6 41h123q183 0 207 135q10 56 -27 90.5t-133 34.5h-75l37 205q-226 8 -341.5 159.5t-70.5 407.5z" />
    <glyph glyph-name="egrave" unicode="&#xe8;" horiz-adv-x="1286" 
d="M750 1083q-97 0 -189 -31.5t-173 -92t-139.5 -161t-80.5 -227.5h962q28 133 10 230t-77 159.5t-138.5 92.5t-174.5 30zM1133 375q-60 -175 -214 -282t-364 -107q-235 0 -356.5 152.5t-75.5 414.5q31 174 123 304t224 196.5t286 66.5q122 0 214 -41.5t141 -110t67 -151.5
t2 -172q-16 -82 -23 -110h-997q-21 -128 3 -228.5t82.5 -161t139 -91.5t176.5 -31q186 0 331 94.5t200 257.5h41zM586 1466l8 50l334 -275l-6 -41z" />
    <glyph glyph-name="eacute" unicode="&#xe9;" horiz-adv-x="1286" 
d="M750 1083q-97 0 -189 -31.5t-173 -92t-139.5 -161t-80.5 -227.5h962q28 133 10 230t-77 159.5t-138.5 92.5t-174.5 30zM1133 375q-60 -175 -214 -282t-364 -107q-235 0 -356.5 152.5t-75.5 414.5q31 174 123 304t224 196.5t286 66.5q122 0 214 -41.5t141 -110t67 -151.5
t2 -172q-16 -82 -23 -110h-997q-21 -128 3 -228.5t82.5 -161t139 -91.5t176.5 -31q186 0 331 94.5t200 257.5h41zM545 1241l432 275l-8 -50l-430 -266z" />
    <glyph glyph-name="ecircumflex" unicode="&#xea;" horiz-adv-x="1286" 
d="M750 1083q-97 0 -189 -31.5t-173 -92t-139.5 -161t-80.5 -227.5h962q28 133 10 230t-77 159.5t-138.5 92.5t-174.5 30zM1133 375q-60 -175 -214 -282t-364 -107q-235 0 -356.5 152.5t-75.5 414.5q31 174 123 304t224 196.5t286 66.5q122 0 214 -41.5t141 -110t67 -151.5
t2 -172q-16 -82 -23 -110h-997q-21 -128 3 -228.5t82.5 -161t139 -91.5t176.5 -31q186 0 331 94.5t200 257.5h41zM1028 1311l-6 -41l-223 166l-283 -166l6 41l285 166z" />
    <glyph glyph-name="edieresis" unicode="&#xeb;" horiz-adv-x="1286" 
d="M750 1083q-97 0 -189 -31.5t-173 -92t-139.5 -161t-80.5 -227.5h962q28 133 10 230t-77 159.5t-138.5 92.5t-174.5 30zM1133 375q-60 -175 -214 -282t-364 -107q-235 0 -356.5 152.5t-75.5 414.5q31 174 123 304t224 196.5t286 66.5q122 0 214 -41.5t141 -110t67 -151.5
t2 -172q-16 -82 -23 -110h-997q-21 -128 3 -228.5t82.5 -161t139 -91.5t176.5 -31q186 0 331 94.5t200 257.5h41zM637 1284q-23 0 -36 14.5t-13 36.5q0 28 21 50t50 22q21 0 34.5 -14.5t13.5 -36.5q0 -28 -21 -50t-49 -22zM911 1284q-23 0 -36 14.5t-13 36.5q0 28 21.5 50
t50.5 22q21 0 34 -14t13 -35q0 -29 -21 -51.5t-49 -22.5z" />
    <glyph glyph-name="igrave" unicode="&#xec;" horiz-adv-x="389" 
d="M76 0l196 1106h41l-196 -1106h-41zM137 1466l8 50l334 -275l-6 -41z" />
    <glyph glyph-name="iacute" unicode="&#xed;" horiz-adv-x="389" 
d="M76 0l196 1106h41l-196 -1106h-41zM96 1241l432 275l-8 -50l-430 -266z" />
    <glyph glyph-name="icircumflex" unicode="&#xee;" horiz-adv-x="389" 
d="M76 0l196 1106h41l-196 -1106h-41zM580 1311l-7 -41l-223 166l-282 -166l6 41l284 166z" />
    <glyph glyph-name="idieresis" unicode="&#xef;" horiz-adv-x="389" 
d="M76 0l196 1106h41l-196 -1106h-41zM188 1284q-23 0 -36 14.5t-13 36.5q0 28 21.5 50t50.5 22q21 0 34 -14.5t13 -36.5q0 -28 -21 -50t-49 -22zM463 1284q-23 0 -36 14.5t-13 36.5q0 28 21 50t50 22q21 0 34 -14t13 -35q0 -29 -20.5 -51.5t-48.5 -22.5z" />
    <glyph glyph-name="eth" unicode="&#xf0;" horiz-adv-x="1320" 
d="M645 1290l305 105q-53 59 -121 121h45q68 -61 113 -109l324 111l-6 -37l-295 -101q145 -166 193 -347t9 -404q-57 -316 -231 -479.5t-420 -163.5q-166 0 -275.5 76.5t-149 211.5t-7.5 312q43 246 216 395t419 149q87 0 161 -24.5t133 -73t96 -128.5t44 -185
q8 196 -41.5 346t-181.5 303l-336 -115zM170 586q-46 -262 64.5 -412.5t332.5 -150.5q216 0 381.5 142.5t208.5 387.5q22 131 1 231.5t-76.5 169.5t-138.5 104.5t-185 35.5q-220 0 -383 -135t-205 -373z" />
    <glyph glyph-name="ntilde" unicode="&#xf1;" horiz-adv-x="1257" 
d="M745 1094q-197 0 -338 -127t-184 -373l-106 -594h-41l196 1106h41l-51 -289q67 154 197.5 233.5t292.5 79.5q93 0 166 -27.5t125.5 -86.5t69.5 -151t-3 -220l-115 -645h-39l115 649q39 216 -49.5 330.5t-276.5 114.5zM500 1237q19 63 57.5 99t89.5 36q34 0 61 -16
t42.5 -35t41.5 -35t58 -16q34 0 63.5 25.5t42.5 70.5h37q-12 -56 -54.5 -94.5t-94.5 -38.5q-36 0 -65 16t-45.5 35t-41.5 35t-53 16q-73 0 -102 -98h-37z" />
    <glyph glyph-name="ograve" unicode="&#xf2;" horiz-adv-x="1325" 
d="M1212 682q0 -141 -48.5 -268.5t-132.5 -222t-205.5 -150t-260.5 -55.5q-204 0 -328 117t-124 321q0 141 48.5 268.5t133 222t206.5 150t261 55.5q204 0 327 -116t123 -322zM154 428q0 -101 33.5 -180.5t91.5 -127.5t132 -72.5t160 -24.5q176 0 314.5 91t212 240t73.5 326
q0 101 -33 180t-91 126.5t-131.5 72t-159.5 24.5q-132 0 -246 -53.5t-191.5 -143.5t-121 -209t-43.5 -249zM606 1481l8 49l334 -275l-6 -41z" />
    <glyph glyph-name="oacute" unicode="&#xf3;" horiz-adv-x="1325" 
d="M1212 682q0 -141 -48.5 -268.5t-132.5 -222t-205.5 -150t-260.5 -55.5q-204 0 -328 117t-124 321q0 141 48.5 268.5t133 222t206.5 150t261 55.5q204 0 327 -116t123 -322zM154 428q0 -101 33.5 -180.5t91.5 -127.5t132 -72.5t160 -24.5q176 0 314.5 91t212 240t73.5 326
q0 101 -33 180t-91 126.5t-131.5 72t-159.5 24.5q-132 0 -246 -53.5t-191.5 -143.5t-121 -209t-43.5 -249zM565 1255l432 275l-8 -49l-430 -267z" />
    <glyph glyph-name="ocircumflex" unicode="&#xf4;" horiz-adv-x="1325" 
d="M1212 682q0 -141 -48.5 -268.5t-132.5 -222t-205.5 -150t-260.5 -55.5q-204 0 -328 117t-124 321q0 141 48.5 268.5t133 222t206.5 150t261 55.5q204 0 327 -116t123 -322zM154 428q0 -101 33.5 -180.5t91.5 -127.5t132 -72.5t160 -24.5q176 0 314.5 91t212 240t73.5 326
q0 101 -33 180t-91 126.5t-131.5 72t-159.5 24.5q-132 0 -246 -53.5t-191.5 -143.5t-121 -209t-43.5 -249zM1049 1325l-7 -41l-223 166l-282 -166l6 41l284 166z" />
    <glyph glyph-name="otilde" unicode="&#xf5;" horiz-adv-x="1325" 
d="M1212 682q0 -141 -48.5 -268.5t-132.5 -222t-205.5 -150t-260.5 -55.5q-204 0 -328 117t-124 321q0 141 48.5 268.5t133 222t206.5 150t261 55.5q204 0 327 -116t123 -322zM154 428q0 -101 33.5 -180.5t91.5 -127.5t132 -72.5t160 -24.5q176 0 314.5 91t212 240t73.5 326
q0 101 -33 180t-91 126.5t-131.5 72t-159.5 24.5q-132 0 -246 -53.5t-191.5 -143.5t-121 -209t-43.5 -249zM588 1251q19 63 57.5 99t89.5 36q34 0 61 -16t42.5 -35t41.5 -35t58 -16q34 0 63.5 25.5t42.5 70.5h37q-12 -56 -54.5 -94.5t-94.5 -38.5q-29 0 -53 10.5t-40.5 25.5
t-32 30.5t-35.5 26t-44 10.5q-73 0 -102 -99h-37z" />
    <glyph glyph-name="odieresis" unicode="&#xf6;" horiz-adv-x="1325" 
d="M1212 682q0 -141 -48.5 -268.5t-132.5 -222t-205.5 -150t-260.5 -55.5q-204 0 -328 117t-124 321q0 141 48.5 268.5t133 222t206.5 150t261 55.5q204 0 327 -116t123 -322zM154 428q0 -101 33.5 -180.5t91.5 -127.5t132 -72.5t160 -24.5q176 0 314.5 91t212 240t73.5 326
q0 101 -33 180t-91 126.5t-131.5 72t-159.5 24.5q-132 0 -246 -53.5t-191.5 -143.5t-121 -209t-43.5 -249zM657 1298q-23 0 -36 15t-13 37q0 28 21.5 49.5t50.5 21.5q21 0 34 -14.5t13 -36.5q0 -28 -21 -50t-49 -22zM932 1298q-23 0 -36 15t-13 37q0 28 21 49.5t50 21.5
q21 0 34 -14t13 -35q0 -29 -20.5 -51.5t-48.5 -22.5z" />
    <glyph glyph-name="divide" unicode="&#xf7;" horiz-adv-x="1206" 
d="M119 760l6 37h1042l-6 -37h-1042zM621 342q-4 -25 -22.5 -40t-41.5 -15t-35 15t-8 40q4 24 22 39.5t42 15.5q23 0 35 -15t8 -40zM743 1219q-4 -25 -22 -40.5t-41 -15.5t-35 15.5t-8 40.5t22 40t41 15t35 -15t8 -40z" />
    <glyph glyph-name="oslash" unicode="&#xf8;" horiz-adv-x="1325" 
d="M1212 682q0 -141 -48.5 -268.5t-132.5 -222t-205.5 -150t-260.5 -55.5q-223 0 -346 135l-131 -121h-45l156 143q-86 113 -86 281q0 141 48.5 268.5t133 222t206.5 150t261 55.5q226 0 348 -137l133 123h45l-160 -148q84 -111 84 -276zM154 428q0 -157 77 -256l848 782
q-114 129 -323 129q-132 0 -246 -53.5t-191.5 -143.5t-121 -209t-43.5 -249zM571 23q176 0 314.5 91t212 240t73.5 326q0 155 -73 250l-848 -780q115 -127 321 -127z" />
    <glyph glyph-name="ugrave" unicode="&#xf9;" horiz-adv-x="1257" 
d="M1182 1106l-197 -1106h-41l53 299q-65 -157 -196 -238t-293 -81q-93 0 -166.5 27.5t-126.5 86.5t-70.5 151t2.5 220l115 641h39l-115 -645q-37 -216 51.5 -330.5t276.5 -114.5q198 0 338.5 128t183.5 378v-4l105 588h41zM573 1466l9 50l333 -275l-6 -41z" />
    <glyph glyph-name="uacute" unicode="&#xfa;" horiz-adv-x="1257" 
d="M1182 1106l-197 -1106h-41l53 299q-65 -157 -196 -238t-293 -81q-93 0 -166.5 27.5t-126.5 86.5t-70.5 151t2.5 220l115 641h39l-115 -645q-37 -216 51.5 -330.5t276.5 -114.5q198 0 338.5 128t183.5 378v-4l105 588h41zM532 1241l433 275l-9 -50l-430 -266z" />
    <glyph glyph-name="ucircumflex" unicode="&#xfb;" horiz-adv-x="1257" 
d="M1182 1106l-197 -1106h-41l53 299q-65 -157 -196 -238t-293 -81q-93 0 -166.5 27.5t-126.5 86.5t-70.5 151t2.5 220l115 641h39l-115 -645q-37 -216 51.5 -330.5t276.5 -114.5q198 0 338.5 128t183.5 378v-4l105 588h41zM1016 1311l-6 -41l-224 166l-282 -166l6 41
l285 166z" />
    <glyph glyph-name="udieresis" unicode="&#xfc;" horiz-adv-x="1257" 
d="M1182 1106l-197 -1106h-41l53 299q-65 -157 -196 -238t-293 -81q-93 0 -166.5 27.5t-126.5 86.5t-70.5 151t2.5 220l115 641h39l-115 -645q-37 -216 51.5 -330.5t276.5 -114.5q198 0 338.5 128t183.5 378v-4l105 588h41zM625 1284q-23 0 -36.5 14.5t-13.5 36.5
q0 28 21.5 50t50.5 22q21 0 34 -14.5t13 -36.5q0 -28 -21 -50t-48 -22zM899 1284q-23 0 -36 14.5t-13 36.5q0 28 21.5 50t50.5 22q21 0 34 -14t13 -35q0 -29 -21 -51.5t-49 -22.5z" />
    <glyph glyph-name="yacute" unicode="&#xfd;" horiz-adv-x="1030" 
d="M414 -4l-275 1110h45l265 -1047l593 1047h45l-917 -1626h-49zM420 1241l432 275l-8 -50l-430 -266z" />
    <glyph glyph-name="thorn" unicode="&#xfe;" horiz-adv-x="1374" 
d="M248 750q73 166 223 268t342 102q241 0 362 -153t76 -414q-30 -173 -121.5 -302.5t-225.5 -197t-292 -67.5q-191 0 -305 102t-129 268l-153 -876h-39l358 2036h39zM1210 553q43 247 -66 388.5t-337 141.5q-219 0 -385.5 -146.5t-208.5 -383.5t72 -383.5t333 -146.5
q229 0 389.5 142t202.5 388z" />
    <glyph glyph-name="ydieresis" unicode="&#xff;" horiz-adv-x="1030" 
d="M414 -4l-275 1110h45l265 -1047l593 1047h45l-917 -1626h-49zM512 1284q-23 0 -36 14.5t-13 36.5q0 28 21.5 50t50.5 22q21 0 34 -14.5t13 -36.5q0 -28 -21 -50t-49 -22zM786 1284q-23 0 -36 14.5t-13 36.5q0 28 21.5 50t50.5 22q21 0 34 -14t13 -35q0 -29 -21 -51.5
t-49 -22.5z" />
    <glyph glyph-name="Amacron" unicode="&#x100;" horiz-adv-x="1230" 
d="M1024 0l-80 397h-713l-221 -397h-47l782 1399h41l285 -1399h-47zM492 1642l6 37h632l-6 -37h-632zM936 434l-182 899l-502 -899h684z" />
    <glyph glyph-name="amacron" unicode="&#x101;" horiz-adv-x="1374" 
d="M123 553q30 173 121.5 302.5t225.5 197t292 67.5q190 0 304 -98.5t134 -253.5l60 338h38l-196 -1106h-39l59 338q-71 -154 -220.5 -253t-340.5 -99q-241 0 -362 153t-76 414zM1161 553q42 237 -72 383.5t-333 146.5q-229 0 -389.5 -142t-202.5 -388q-43 -247 66 -388.5
t337 -141.5q219 0 385.5 146.5t208.5 383.5zM518 1350l6 36h633l-6 -36h-633z" />
    <glyph glyph-name="Abreve" unicode="&#x102;" horiz-adv-x="1230" 
d="M1024 0l-80 397h-713l-221 -397h-47l782 1399h41l285 -1399h-47zM1071 1767q-14 -84 -86 -148.5t-192 -64.5q-62 0 -107 19t-67 51t-29.5 68t-1.5 75l2 9h41q-15 -88 29 -136.5t139 -48.5t156.5 48.5t76.5 136.5h41zM936 434l-182 899l-502 -899h684z" />
    <glyph glyph-name="abreve" unicode="&#x103;" horiz-adv-x="1374" 
d="M123 553q30 173 121.5 302.5t225.5 197t292 67.5q190 0 304 -98.5t134 -253.5l60 338h38l-196 -1106h-39l59 338q-71 -154 -220.5 -253t-340.5 -99q-241 0 -362 153t-76 414zM1161 553q42 237 -72 383.5t-333 146.5q-229 0 -389.5 -142t-202.5 -388q-43 -247 66 -388.5
t337 -141.5q219 0 385.5 146.5t208.5 383.5zM1098 1475q-14 -84 -86.5 -148.5t-192.5 -64.5q-62 0 -107 19t-67 51t-29.5 68t-1.5 75l2 8h41q-15 -88 29 -136.5t139 -48.5t157 48.5t77 136.5h41z" />
    <glyph glyph-name="Aogonek" unicode="&#x104;" horiz-adv-x="1230" 
d="M745 1399h41l285 -1399l-158 -68q-157 -66 -174 -168q-10 -57 23.5 -85.5t97.5 -28.5q59 0 135 26l-8 -41q-67 -24 -131 -24q-82 0 -126.5 38t-31.5 113q24 132 213 211l109 45l-76 379h-713l-221 -397h-47zM936 434l-182 899l-502 -899h684z" />
    <glyph glyph-name="aogonek" unicode="&#x105;" horiz-adv-x="1374" 
d="M123 553q30 173 121.5 302.5t225.5 197t292 67.5q190 0 304 -98.5t134 -253.5l60 338h38l-196 -1106l-158 -68q-157 -66 -174 -168q-10 -57 23.5 -85.5t97.5 -28.5q59 0 135 26l-8 -41q-68 -24 -133 -24q-81 0 -125 38t-31 113q23 130 209 207l129 54l55 315
q-71 -154 -220.5 -253t-340.5 -99q-241 0 -362 153t-76 414zM1161 553q42 237 -72 383.5t-333 146.5q-229 0 -389.5 -142t-202.5 -388q-43 -247 66 -388.5t337 -141.5q219 0 385.5 146.5t208.5 383.5z" />
    <glyph glyph-name="Cacute" unicode="&#x106;" horiz-adv-x="1574" 
d="M152 719q38 214 154 382.5t285.5 261.5t362.5 93q251 0 395.5 -116.5t184.5 -323.5h-41q-34 183 -171.5 293t-373.5 110q-104 0 -204 -30.5t-189 -90.5t-161.5 -143.5t-124 -195.5t-74.5 -240q-29 -162 -2.5 -291t96 -219t175.5 -138t236 -48q236 0 413 110t276 291h41
q-113 -206 -299 -322t-437 -116q-193 0 -330 93t-193 260.5t-19 379.5zM795 1534l432 274l-8 -49l-431 -266z" />
    <glyph glyph-name="cacute" unicode="&#x107;" horiz-adv-x="1286" 
d="M123 553q31 174 123 304t224 196.5t286 66.5q210 0 325.5 -107t112.5 -282h-41q3 163 -107 257.5t-296 94.5q-78 0 -152.5 -19.5t-144.5 -61.5t-127 -103.5t-100 -150t-62 -195.5q-22 -138 -1.5 -238t80 -165t140 -96t178.5 -31q186 0 331 94.5t200 257.5h41
q-60 -175 -214 -282t-364 -107q-235 0 -356.5 152.5t-75.5 414.5zM551 1241l432 275l-8 -50l-430 -266z" />
    <glyph glyph-name="Cdotaccent" unicode="&#x10a;" horiz-adv-x="1574" 
d="M152 719q38 214 154 382.5t285.5 261.5t362.5 93q251 0 395.5 -116.5t184.5 -323.5h-41q-34 183 -171.5 293t-373.5 110q-104 0 -204 -30.5t-189 -90.5t-161.5 -143.5t-124 -195.5t-74.5 -240q-29 -162 -2.5 -291t96 -219t175.5 -138t236 -48q236 0 413 110t276 291h41
q-113 -206 -299 -322t-437 -116q-193 0 -330 93t-193 260.5t-19 379.5zM1014 1532q-25 0 -40 18t-11 43q5 25 26.5 43.5t46.5 18.5t39.5 -18.5t9.5 -43.5t-25.5 -43t-45.5 -18z" />
    <glyph glyph-name="cdotaccent" unicode="&#x10b;" horiz-adv-x="1286" 
d="M123 553q31 174 123 304t224 196.5t286 66.5q210 0 325.5 -107t112.5 -282h-41q3 163 -107 257.5t-296 94.5q-78 0 -152.5 -19.5t-144.5 -61.5t-127 -103.5t-100 -150t-62 -195.5q-22 -138 -1.5 -238t80 -165t140 -96t178.5 -31q186 0 331 94.5t200 257.5h41
q-60 -175 -214 -282t-364 -107q-235 0 -356.5 152.5t-75.5 414.5zM770 1239q-25 0 -40 18t-11 43t26.5 43.5t47.5 18.5t39.5 -18.5t9.5 -43.5t-26 -43t-46 -18z" />
    <glyph glyph-name="Ccaron" unicode="&#x10c;" horiz-adv-x="1574" 
d="M152 719q38 214 154 382.5t285.5 261.5t362.5 93q251 0 395.5 -116.5t184.5 -323.5h-41q-34 183 -171.5 293t-373.5 110q-104 0 -204 -30.5t-189 -90.5t-161.5 -143.5t-124 -195.5t-74.5 -240q-29 -162 -2.5 -291t96 -219t175.5 -138t236 -48q236 0 413 110t276 291h41
q-113 -206 -299 -322t-437 -116q-193 0 -330 93t-193 260.5t-19 379.5zM1026 1597l281 166l-9 -41l-280 -166l-225 166l8 41z" />
    <glyph glyph-name="ccaron" unicode="&#x10d;" horiz-adv-x="1286" 
d="M123 553q31 174 123 304t224 196.5t286 66.5q210 0 325.5 -107t112.5 -282h-41q3 163 -107 257.5t-296 94.5q-78 0 -152.5 -19.5t-144.5 -61.5t-127 -103.5t-100 -150t-62 -195.5q-22 -138 -1.5 -238t80 -165t140 -96t178.5 -31q186 0 331 94.5t200 257.5h41
q-60 -175 -214 -282t-364 -107q-235 0 -356.5 152.5t-75.5 414.5zM782 1305l281 165l-8 -40l-281 -166l-225 166l8 40z" />
    <glyph glyph-name="Dcaron" unicode="&#x10e;" horiz-adv-x="1437" 
d="M711 1442q373 0 533.5 -188t98.5 -533q-61 -345 -288 -533t-600 -188h-379l256 1442h379zM125 37h338q355 0 569 180.5t271 503.5q58 323 -93.5 503.5t-507.5 180.5h-337zM881 1597l280 166l-8 -41l-281 -166l-225 166l8 41z" />
    <glyph glyph-name="dcaron" unicode="&#x10f;" horiz-adv-x="1374" 
d="M1485 1516h114q-5 -74 -16 -142q-16 -91 -57 -125.5t-109 -34.5l6 41q52 0 76.5 23t32.5 70l12 59h-78zM123 553q30 173 121.5 302.5t225.5 197t292 67.5q190 0 304 -98.5t134 -253.5l131 748h39l-268 -1516h-39l61 340q-72 -156 -222 -255t-341 -99q-241 0 -362 153
t-76 414zM1161 553q42 237 -72 383.5t-333 146.5q-229 0 -389.5 -142t-202.5 -388q-43 -247 66 -388.5t337 -141.5q219 0 385.5 146.5t208.5 383.5z" />
    <glyph glyph-name="Dcroat" unicode="&#x110;" horiz-adv-x="1519" 
d="M793 1442q373 0 533.5 -188t98.5 -533q-61 -345 -288 -533t-600 -188h-379l125 702h-236l6 37h236l125 703h379zM207 37h338q355 0 568.5 180t270.5 504q58 323 -93 503.5t-507 180.5h-338l-116 -666h477l-6 -37h-477z" />
    <glyph glyph-name="dcroat" unicode="&#x111;" horiz-adv-x="1359" 
d="M123 553q30 173 121.5 302.5t225.5 197t292 67.5q190 0 304 -98.5t134 -253.5l98 563h-419l6 37h420l26 148h39l-27 -148h140l-6 -37h-140l-235 -1331h-39l61 340q-72 -156 -222 -255t-341 -99q-241 0 -362 153t-76 414zM1161 553q42 237 -72 383.5t-333 146.5
q-229 0 -389.5 -142t-202.5 -388q-43 -247 66 -388.5t337 -141.5q219 0 385.5 146.5t208.5 383.5z" />
    <glyph glyph-name="Emacron" unicode="&#x112;" horiz-adv-x="980" 
d="M1036 1442l-8 -37h-663l-117 -666h602l-6 -37h-602l-117 -665h663l-8 -37h-704l256 1442h704zM352 1642l6 37h633l-6 -37h-633z" />
    <glyph glyph-name="emacron" unicode="&#x113;" horiz-adv-x="1286" 
d="M750 1083q-97 0 -189 -31.5t-173 -92t-139.5 -161t-80.5 -227.5h962q28 133 10 230t-77 159.5t-138.5 92.5t-174.5 30zM1133 375q-60 -175 -214 -282t-364 -107q-235 0 -356.5 152.5t-75.5 414.5q31 174 123 304t224 196.5t286 66.5q122 0 214 -41.5t141 -110t67 -151.5
t2 -172q-16 -82 -23 -110h-997q-21 -128 3 -228.5t82.5 -161t139 -91.5t176.5 -31q186 0 331 94.5t200 257.5h41zM467 1350l6 36h633l-6 -36h-633z" />
    <glyph glyph-name="Ebreve" unicode="&#x114;" horiz-adv-x="980" 
d="M1036 1442l-8 -37h-663l-117 -666h602l-6 -37h-602l-117 -665h663l-8 -37h-704l256 1442h704zM932 1767q-14 -84 -86.5 -148.5t-192.5 -64.5q-62 0 -107 19t-67 51t-29 68t-1 75l2 9h41q-15 -88 28.5 -136.5t138.5 -48.5t157 48.5t77 136.5h41z" />
    <glyph glyph-name="ebreve" unicode="&#x115;" horiz-adv-x="1286" 
d="M750 1083q-97 0 -189 -31.5t-173 -92t-139.5 -161t-80.5 -227.5h962q28 133 10 230t-77 159.5t-138.5 92.5t-174.5 30zM1133 375q-60 -175 -214 -282t-364 -107q-235 0 -356.5 152.5t-75.5 414.5q31 174 123 304t224 196.5t286 66.5q122 0 214 -41.5t141 -110t67 -151.5
t2 -172q-16 -82 -23 -110h-997q-21 -128 3 -228.5t82.5 -161t139 -91.5t176.5 -31q186 0 331 94.5t200 257.5h41zM1047 1475q-14 -84 -86.5 -148.5t-192.5 -64.5q-62 0 -107 19t-67 51t-29.5 68t-1.5 75l2 8h41q-15 -88 29 -136.5t139 -48.5t157 48.5t77 136.5h41z" />
    <glyph glyph-name="Edotaccent" unicode="&#x116;" horiz-adv-x="980" 
d="M1036 1442l-8 -37h-663l-117 -666h602l-6 -37h-602l-117 -665h663l-8 -37h-704l256 1442h704zM649 1532q-25 0 -40 18t-11 43t26.5 43.5t47.5 18.5t39.5 -18.5t9.5 -43.5t-26 -43t-46 -18z" />
    <glyph glyph-name="edotaccent" unicode="&#x117;" horiz-adv-x="1286" 
d="M750 1083q-97 0 -189 -31.5t-173 -92t-139.5 -161t-80.5 -227.5h962q28 133 10 230t-77 159.5t-138.5 92.5t-174.5 30zM1133 375q-60 -175 -214 -282t-364 -107q-235 0 -356.5 152.5t-75.5 414.5q31 174 123 304t224 196.5t286 66.5q122 0 214 -41.5t141 -110t67 -151.5
t2 -172q-16 -82 -23 -110h-997q-21 -128 3 -228.5t82.5 -161t139 -91.5t176.5 -31q186 0 331 94.5t200 257.5h41zM764 1239q-25 0 -40 18t-11 43q5 25 26.5 43.5t46.5 18.5t40 -18.5t10 -43.5t-26 -43t-46 -18z" />
    <glyph glyph-name="Eogonek" unicode="&#x118;" horiz-adv-x="980" 
d="M1036 1442l-8 -37h-663l-117 -666h602l-6 -37h-602l-117 -665h663l-8 -37l-157 -68q-157 -66 -174 -168q-10 -57 23 -85.5t97 -28.5q60 0 136 26l-9 -41q-67 -24 -133 -24q-81 0 -124.5 38t-30.5 113q23 130 208 207l74 31h-614l256 1442h704z" />
    <glyph glyph-name="eogonek" unicode="&#x119;" horiz-adv-x="1286" 
d="M750 1083q-97 0 -189 -31.5t-173 -92t-139.5 -161t-80.5 -227.5h962q28 133 10 230t-77 159.5t-138.5 92.5t-174.5 30zM700 -340q-70 -25 -133 -25q-81 0 -124.5 38.5t-30.5 113.5q23 124 194 201q-16 -2 -51 -2q-235 0 -356.5 152.5t-75.5 414.5q31 174 123 304
t224 196.5t286 66.5q122 0 214 -41.5t141 -110t67 -151.5t2 -172q-16 -82 -23 -110h-997q-21 -128 3 -228.5t82.5 -161t139 -91.5t176.5 -31q186 0 331 94.5t200 257.5h41q-41 -124 -134 -216t-221 -136l-151 -66q-157 -66 -174 -168q-10 -57 23.5 -86t96.5 -29q57 0 136 27
z" />
    <glyph glyph-name="Ecaron" unicode="&#x11a;" horiz-adv-x="980" 
d="M1036 1442l-8 -37h-663l-117 -666h602l-6 -37h-602l-117 -665h663l-8 -37h-704l256 1442h704zM662 1597l280 166l-8 -41l-281 -166l-225 166l8 41z" />
    <glyph glyph-name="ecaron" unicode="&#x11b;" horiz-adv-x="1286" 
d="M750 1083q-97 0 -189 -31.5t-173 -92t-139.5 -161t-80.5 -227.5h962q28 133 10 230t-77 159.5t-138.5 92.5t-174.5 30zM1133 375q-60 -175 -214 -282t-364 -107q-235 0 -356.5 152.5t-75.5 414.5q31 174 123 304t224 196.5t286 66.5q122 0 214 -41.5t141 -110t67 -151.5
t2 -172q-16 -82 -23 -110h-997q-21 -128 3 -228.5t82.5 -161t139 -91.5t176.5 -31q186 0 331 94.5t200 257.5h41zM776 1305l281 165l-8 -40l-281 -166l-225 166l8 40z" />
    <glyph glyph-name="Gbreve" unicode="&#x11e;" horiz-adv-x="1622" 
d="M152 719q37 213 155 381t292 261t372 93q232 0 377 -118t186 -322h-41q-33 180 -172.5 291.5t-357.5 111.5q-134 0 -260 -48.5t-229 -137t-176.5 -221t-102.5 -291.5q-29 -163 -1 -292.5t99.5 -220t180.5 -138.5t243 -48q132 0 257 47t228 133t178 214.5t107 283.5h-680
l6 37h719l-4 -16q-57 -323 -286.5 -529t-530.5 -206q-149 0 -267.5 54t-191 151.5t-101.5 232.5t1 297zM1296 1767q-14 -84 -86 -148.5t-192 -64.5q-62 0 -107 19t-67 51t-29.5 68t-1.5 75l2 9h41q-15 -88 29 -136.5t139 -48.5t156.5 48.5t76.5 136.5h41z" />
    <glyph glyph-name="gbreve" unicode="&#x11f;" horiz-adv-x="1374" 
d="M123 553q30 173 121.5 302.5t225.5 197t292 67.5q190 0 304 -98t134 -250l60 334h38l-202 -1147q-27 -154 -117.5 -270t-210.5 -173t-250 -57q-199 0 -314 97.5t-136 263.5h41q20 -149 125 -236.5t290 -87.5q126 0 238 55.5t191 162t104 245.5l65 377
q-71 -153 -220.5 -251.5t-340.5 -98.5q-241 0 -362 153t-76 414zM1161 553q42 237 -72 383.5t-333 146.5q-229 0 -389.5 -142t-202.5 -388q-43 -247 66 -388.5t337 -141.5q219 0 385.5 146.5t208.5 383.5zM1098 1475q-14 -84 -86.5 -148.5t-192.5 -64.5q-62 0 -107 19
t-67 51t-29.5 68t-1.5 75l2 8h41q-15 -88 29 -136.5t139 -48.5t157 48.5t77 136.5h41z" />
    <glyph glyph-name="Gdotaccent" unicode="&#x120;" horiz-adv-x="1622" 
d="M152 719q37 213 155 381t292 261t372 93q232 0 377 -118t186 -322h-41q-33 180 -172.5 291.5t-357.5 111.5q-134 0 -260 -48.5t-229 -137t-176.5 -221t-102.5 -291.5q-29 -163 -1 -292.5t99.5 -220t180.5 -138.5t243 -48q132 0 257 47t228 133t178 214.5t107 283.5h-680
l6 37h719l-4 -16q-57 -323 -286.5 -529t-530.5 -206q-149 0 -267.5 54t-191 151.5t-101.5 232.5t1 297zM1014 1532q-25 0 -40 18t-11 43q5 25 26.5 43.5t46.5 18.5t39.5 -18.5t9.5 -43.5t-25.5 -43t-45.5 -18z" />
    <glyph glyph-name="gdotaccent" unicode="&#x121;" horiz-adv-x="1374" 
d="M123 553q30 173 121.5 302.5t225.5 197t292 67.5q190 0 304 -98t134 -250l60 334h38l-202 -1147q-27 -154 -117.5 -270t-210.5 -173t-250 -57q-199 0 -314 97.5t-136 263.5h41q20 -149 125 -236.5t290 -87.5q126 0 238 55.5t191 162t104 245.5l65 377
q-71 -153 -220.5 -251.5t-340.5 -98.5q-241 0 -362 153t-76 414zM1161 553q42 237 -72 383.5t-333 146.5q-229 0 -389.5 -142t-202.5 -388q-43 -247 66 -388.5t337 -141.5q219 0 385.5 146.5t208.5 383.5zM815 1239q-25 0 -40 18t-11 43t26.5 43.5t47.5 18.5t39.5 -18.5
t9.5 -43.5t-26 -43t-46 -18z" />
    <glyph glyph-name="uni0122" unicode="&#x122;" horiz-adv-x="1622" 
d="M653 -121h105q-1 -9 -3 -31.5t-3 -31.5q-19 -101 -61 -138.5t-105 -37.5l8 36q47 0 71.5 28.5t34.5 82.5l2 14h-63zM152 719q37 213 155 381t292 261t372 93q232 0 377 -118t186 -322h-41q-33 180 -172.5 291.5t-357.5 111.5q-134 0 -260 -48.5t-229 -137t-176.5 -221
t-102.5 -291.5q-29 -163 -1 -292.5t99.5 -220t180.5 -138.5t243 -48q132 0 257 47t228 133t178 214.5t107 283.5h-680l6 37h719l-4 -16q-57 -323 -286.5 -529t-530.5 -206q-149 0 -267.5 54t-191 151.5t-101.5 232.5t1 297z" />
    <glyph glyph-name="uni0123" unicode="&#x123;" horiz-adv-x="1374" 
d="M834 1214h-115q5 74 16 142q16 91 57 125.5t109 34.5l-8 -41q-51 0 -75 -23t-34 -70l-10 -59h78zM123 553q30 173 121.5 302.5t225.5 197t292 67.5q190 0 304 -98t134 -250l60 334h38l-202 -1147q-27 -154 -117.5 -270t-210.5 -173t-250 -57q-199 0 -314 97.5t-136 263.5
h41q20 -149 125 -236.5t290 -87.5q126 0 238 55.5t191 162t104 245.5l65 377q-71 -153 -220.5 -251.5t-340.5 -98.5q-241 0 -362 153t-76 414zM1161 553q42 237 -72 383.5t-333 146.5q-229 0 -389.5 -142t-202.5 -388q-43 -247 66 -388.5t337 -141.5q219 0 385.5 146.5
t208.5 383.5z" />
    <glyph glyph-name="Itilde" unicode="&#x128;" horiz-adv-x="389" 
d="M76 0l256 1442h41l-256 -1442h-41zM170 1530q19 63 57.5 99t89.5 36q34 0 61 -16t42.5 -35t41.5 -35t58 -16q34 0 64 25.5t43 70.5h37q-12 -56 -55 -94.5t-95 -38.5q-36 0 -65 16t-45.5 35t-41.5 35t-53 16q-73 0 -102 -98h-37z" />
    <glyph glyph-name="itilde" unicode="&#x129;" horiz-adv-x="389" 
d="M76 0l196 1106h41l-196 -1106h-41zM119 1237q19 63 57.5 99t89.5 36q34 0 61 -16t42.5 -35t41.5 -35t58 -16q34 0 63.5 25.5t42.5 70.5h37q-12 -56 -54.5 -94.5t-94.5 -38.5q-36 0 -65 16t-45.5 35t-41.5 35t-53 16q-73 0 -102 -98h-37z" />
    <glyph glyph-name="Imacron" unicode="&#x12a;" horiz-adv-x="389" 
d="M76 0l256 1442h41l-256 -1442h-41zM70 1642l6 37h633l-7 -37h-632z" />
    <glyph glyph-name="imacron" unicode="&#x12b;" horiz-adv-x="389" 
d="M76 0l196 1106h41l-196 -1106h-41zM18 1350l7 36h632l-6 -36h-633z" />
    <glyph glyph-name="uni012C" unicode="&#x12c;" horiz-adv-x="389" 
d="M76 0l256 1442h41l-256 -1442h-41zM649 1767q-14 -84 -86 -148.5t-192 -64.5q-62 0 -107 19t-67 51t-29.5 68t-1.5 75l2 9h41q-15 -88 29 -136.5t139 -48.5t156.5 48.5t76.5 136.5h41z" />
    <glyph glyph-name="uni012D" unicode="&#x12d;" horiz-adv-x="389" 
d="M76 0l196 1106h41l-196 -1106h-41zM598 1475q-14 -84 -86.5 -148.5t-192.5 -64.5q-62 0 -107 19t-67 51t-29 68t-1 75l2 8h41q-15 -88 29 -136.5t139 -48.5t156.5 48.5t76.5 136.5h41z" />
    <glyph glyph-name="Iogonek" unicode="&#x12e;" horiz-adv-x="389" 
d="M33 -365q-67 -24 -133 -24q-81 0 -125 38t-31 113q23 130 209 207l127 54l252 1419h41l-256 -1442l-158 -68q-157 -66 -174 -168q-10 -57 23.5 -85.5t97.5 -28.5q59 0 135 26z" />
    <glyph glyph-name="iogonek" unicode="&#x12f;" horiz-adv-x="389" 
d="M33 -365q-67 -24 -133 -24q-81 0 -125 38t-31 113q23 130 209 207l127 54l192 1083h41l-196 -1106l-158 -68q-157 -66 -174 -168q-10 -57 23.5 -85.5t97.5 -28.5q59 0 135 26zM342 1389q-23 0 -35 15t-8 40q4 26 21.5 40.5t39.5 14.5q23 0 36.5 -15t9.5 -40t-22.5 -40
t-41.5 -15z" />
    <glyph glyph-name="Idotaccent" unicode="&#x130;" horiz-adv-x="389" 
d="M76 0l256 1442h41l-256 -1442h-41zM367 1532q-25 0 -40.5 18t-11.5 43t26.5 43.5t47.5 18.5t39.5 -18.5t9.5 -43.5t-25.5 -43t-45.5 -18z" />
    <glyph glyph-name="dotlessi" unicode="&#x131;" horiz-adv-x="389" 
d="M76 0l196 1106h41l-196 -1106h-41z" />
    <glyph glyph-name="uni0136" unicode="&#x136;" horiz-adv-x="1011" 
d="M326 -121h104q-1 -9 -3 -31.5t-3 -31.5q-19 -101 -61 -138.5t-105 -37.5l8 36q47 0 72 28.5t35 82.5l2 14h-64zM817 0l-577 688l-123 -688h-41l256 1442h41l-123 -692l823 692h55l-858 -721l602 -721h-55z" />
    <glyph glyph-name="uni0137" unicode="&#x137;" horiz-adv-x="808" 
d="M244 -121h104q-1 -9 -3 -31.5t-3 -31.5q-19 -101 -61 -138.5t-105 -37.5l8 36q47 0 72 28.5t35 82.5l2 14h-64zM76 0l268 1516h41l-162 -916l590 506h59l-641 -549l453 -557h-57l-418 518l-92 -518h-41z" />
    <glyph glyph-name="Lacute" unicode="&#x139;" horiz-adv-x="808" 
d="M332 1442h41l-248 -1405h553l-8 -37h-594zM367 1534l432 274l-8 -49l-431 -266z" />
    <glyph glyph-name="lacute" unicode="&#x13a;" horiz-adv-x="389" 
d="M76 0l268 1516h41l-268 -1516h-41zM168 1651l432 274l-8 -49l-430 -266z" />
    <glyph glyph-name="uni013B" unicode="&#x13b;" horiz-adv-x="808" 
d="M305 -121h105l-7 -63q-19 -101 -60.5 -138.5t-104.5 -37.5l8 36q47 0 71.5 28.5t34.5 82.5l2 14h-63zM332 1442h41l-248 -1405h553l-8 -37h-594z" />
    <glyph glyph-name="uni013C" unicode="&#x13c;" horiz-adv-x="389" 
d="M18 -121h105q-1 -9 -3 -31.5t-3 -31.5q-19 -101 -61 -138.5t-105 -37.5l8 36q47 0 72 28.5t35 82.5l2 14h-64zM76 0l268 1516h41l-268 -1516h-41z" />
    <glyph glyph-name="Lcaron" unicode="&#x13d;" horiz-adv-x="808" 
d="M633 1442h115q-10 -102 -19 -142q-16 -91 -56.5 -125t-107.5 -34l6 41q52 0 76.5 22.5t32.5 69.5l10 59h-78zM332 1442h41l-248 -1405h553l-8 -37h-594z" />
    <glyph glyph-name="lcaron" unicode="&#x13e;" horiz-adv-x="389" 
d="M502 1516h114q-5 -74 -16 -142q-16 -91 -57 -125.5t-109 -34.5l6 41q52 0 76.5 23t32.5 70l12 59h-78zM76 0l268 1516h41l-268 -1516h-41z" />
    <glyph glyph-name="Ldot" unicode="&#x13f;" horiz-adv-x="808" 
d="M332 1442h41l-248 -1405h553l-8 -37h-594zM586 1532q-25 0 -40 18t-11 43q5 25 26.5 43.5t46.5 18.5t39.5 -18.5t9.5 -43.5t-25.5 -43t-45.5 -18z" />
    <glyph glyph-name="ldot" unicode="&#x140;" horiz-adv-x="389" 
d="M387 1649q-25 0 -39.5 18t-9.5 43q3 25 25 43.5t47 18.5q24 0 39 -18.5t12 -43.5q-4 -25 -26.5 -43t-47.5 -18zM76 0l268 1516h41l-268 -1516h-41z" />
    <glyph glyph-name="Lslash" unicode="&#x141;" horiz-adv-x="849" 
d="M373 1442h41l-115 -645l356 153l-8 -45l-356 -153l-125 -715h553l-8 -37h-594l129 731l-211 -92l8 45l211 92z" />
    <glyph glyph-name="lslash" unicode="&#x142;" horiz-adv-x="430" 
d="M96 0l170 965l-190 -101l6 39l192 101l91 512h41l-87 -490l191 100l-6 -39l-193 -100l-174 -987h-41z" />
    <glyph glyph-name="Nacute" unicode="&#x143;" horiz-adv-x="1325" 
d="M1266 1440h41l-254 -1440h-41l-654 1366l-241 -1366h-41l254 1440h41l655 -1364zM616 1534l433 274l-9 -49l-430 -266z" />
    <glyph glyph-name="nacute" unicode="&#x144;" horiz-adv-x="1257" 
d="M477 1241l432 275l-8 -50l-430 -266zM956 0l115 649q39 216 -49.5 330.5t-276.5 114.5q-197 0 -338 -127t-184 -373l-106 -594h-41l196 1106h41l-51 -289q67 154 197.5 233.5t292.5 79.5q93 0 166 -27.5t125.5 -86.5t69.5 -151t-3 -220l-115 -645h-39z" />
    <glyph glyph-name="uni0145" unicode="&#x145;" horiz-adv-x="1325" 
d="M489 -121h105q-1 -9 -3 -31.5t-3 -31.5q-19 -101 -61 -138.5t-105 -37.5l8 36q47 0 72 28.5t35 82.5l2 14h-64zM1266 1440h41l-254 -1440h-41l-654 1366l-241 -1366h-41l254 1440h41l655 -1364z" />
    <glyph glyph-name="uni0146" unicode="&#x146;" horiz-adv-x="1257" 
d="M469 -121h104q-1 -9 -3 -31.5t-3 -31.5q-19 -101 -61 -138.5t-105 -37.5l9 36q47 0 71.5 28.5t34.5 82.5l2 14h-63zM956 0l115 649q39 216 -49.5 330.5t-276.5 114.5q-197 0 -338 -127t-184 -373l-106 -594h-41l196 1106h41l-51 -289q67 154 197.5 233.5t292.5 79.5
q93 0 166 -27.5t125.5 -86.5t69.5 -151t-3 -220l-115 -645h-39z" />
    <glyph glyph-name="Ncaron" unicode="&#x147;" horiz-adv-x="1325" 
d="M1266 1440h41l-254 -1440h-41l-654 1366l-241 -1366h-41l254 1440h41l655 -1364zM848 1597l280 166l-8 -41l-280 -166l-226 166l9 41z" />
    <glyph glyph-name="ncaron" unicode="&#x148;" horiz-adv-x="1257" 
d="M956 0l115 649q39 216 -49.5 330.5t-276.5 114.5q-197 0 -338 -127t-184 -373l-106 -594h-41l196 1106h41l-51 -289q67 154 197.5 233.5t292.5 79.5q93 0 166 -27.5t125.5 -86.5t69.5 -151t-3 -220l-115 -645h-39zM709 1305l280 165l-8 -40l-281 -166l-225 166l8 40z" />
    <glyph glyph-name="Omacron" unicode="&#x14c;" horiz-adv-x="1622" 
d="M1542 877q0 -177 -64.5 -340.5t-174 -285t-264.5 -194.5t-328 -73q-261 0 -417.5 158t-156.5 419q0 176 64.5 339.5t174.5 285.5t266 195t329 73q261 0 416 -158t155 -419zM180 563q0 -251 149 -397t388 -146q164 0 310.5 69.5t249.5 186.5t162.5 274t59.5 327
q0 251 -148.5 395.5t-387.5 144.5q-166 0 -313.5 -70.5t-249.5 -188t-161 -273t-59 -322.5zM709 1642l6 37h633l-7 -37h-632z" />
    <glyph glyph-name="omacron" unicode="&#x14d;" horiz-adv-x="1325" 
d="M1212 682q0 -141 -48.5 -268.5t-132.5 -222t-205.5 -150t-260.5 -55.5q-204 0 -328 117t-124 321q0 141 48.5 268.5t133 222t206.5 150t261 55.5q204 0 327 -116t123 -322zM154 428q0 -101 33.5 -180.5t91.5 -127.5t132 -72.5t160 -24.5q176 0 314.5 91t212 240t73.5 326
q0 101 -33 180t-91 126.5t-131.5 72t-159.5 24.5q-132 0 -246 -53.5t-191.5 -143.5t-121 -209t-43.5 -249zM487 1364l7 37h632l-6 -37h-633z" />
    <glyph glyph-name="uni014E" unicode="&#x14e;" horiz-adv-x="1622" 
d="M1542 877q0 -177 -64.5 -340.5t-174 -285t-264.5 -194.5t-328 -73q-261 0 -417.5 158t-156.5 419q0 176 64.5 339.5t174.5 285.5t266 195t329 73q261 0 416 -158t155 -419zM180 563q0 -251 149 -397t388 -146q164 0 310.5 69.5t249.5 186.5t162.5 274t59.5 327
q0 251 -148.5 395.5t-387.5 144.5q-166 0 -313.5 -70.5t-249.5 -188t-161 -273t-59 -322.5zM1288 1767q-14 -84 -86 -148.5t-192 -64.5q-62 0 -107 19t-67 51t-29.5 68t-1.5 75l2 9h41q-15 -88 29 -136.5t139 -48.5t156.5 48.5t76.5 136.5h41z" />
    <glyph glyph-name="uni014F" unicode="&#x14f;" horiz-adv-x="1325" 
d="M1212 682q0 -141 -48.5 -268.5t-132.5 -222t-205.5 -150t-260.5 -55.5q-204 0 -328 117t-124 321q0 141 48.5 268.5t133 222t206.5 150t261 55.5q204 0 327 -116t123 -322zM154 428q0 -101 33.5 -180.5t91.5 -127.5t132 -72.5t160 -24.5q176 0 314.5 91t212 240t73.5 326
q0 101 -33 180t-91 126.5t-131.5 72t-159.5 24.5q-132 0 -246 -53.5t-191.5 -143.5t-121 -209t-43.5 -249zM1067 1489q-14 -84 -86.5 -148.5t-192.5 -64.5q-62 0 -107 19t-67 51t-29 68t-1 75l2 8h41q-15 -88 29 -136t139 -48t156.5 48t76.5 136h41z" />
    <glyph glyph-name="Ohungarumlaut" unicode="&#x150;" horiz-adv-x="1622" 
d="M1542 877q0 -177 -64.5 -340.5t-174 -285t-264.5 -194.5t-328 -73q-261 0 -417.5 158t-156.5 419q0 176 64.5 339.5t174.5 285.5t266 195t329 73q261 0 416 -158t155 -419zM180 563q0 -251 149 -397t388 -146q164 0 310.5 69.5t249.5 186.5t162.5 274t59.5 327
q0 251 -148.5 395.5t-387.5 144.5q-166 0 -313.5 -70.5t-249.5 -188t-161 -273t-59 -322.5zM1257 1737h48l-179 -213h-41zM1018 1737h47l-168 -213h-41z" />
    <glyph glyph-name="ohungarumlaut" unicode="&#x151;" horiz-adv-x="1325" 
d="M1212 682q0 -141 -48.5 -268.5t-132.5 -222t-205.5 -150t-260.5 -55.5q-204 0 -328 117t-124 321q0 141 48.5 268.5t133 222t206.5 150t261 55.5q204 0 327 -116t123 -322zM154 428q0 -101 33.5 -180.5t91.5 -127.5t132 -72.5t160 -24.5q176 0 314.5 91t212 240t73.5 326
q0 101 -33 180t-91 126.5t-131.5 72t-159.5 24.5q-132 0 -246 -53.5t-191.5 -143.5t-121 -209t-43.5 -249zM1036 1458h47l-178 -213h-41zM797 1458h47l-168 -213h-41z" />
    <glyph glyph-name="OE" unicode="&#x152;" horiz-adv-x="2263" 
d="M2310 1405h-663l-117 -666h602l-6 -37h-602l-117 -665h664l-9 -37h-704l88 492q-90 -229 -294 -368.5t-443 -139.5q-149 0 -267.5 54t-191 151.5t-101.5 232.5t1 297q37 213 155 381t292 261t372 93q239 0 393.5 -139.5t163.5 -368.5l88 496h704zM961 1417
q-134 0 -260 -48.5t-229 -137t-176.5 -221t-102.5 -291.5q-29 -163 -1 -292.5t99.5 -220t180.5 -138.5t243 -48t260.5 49t229.5 137.5t176.5 221t101.5 291.5q29 163 1.5 292.5t-99 219.5t-181 138t-243.5 48z" />
    <glyph glyph-name="oe" unicode="&#x153;" horiz-adv-x="2324" 
d="M1161 553q22 138 0.5 238t-82 165t-142 96t-179.5 31t-191.5 -32t-175.5 -94.5t-142.5 -166.5t-84.5 -237q-22 -138 -0.5 -238t83 -165t143 -96t179.5 -31q78 0 153 19.5t146 61.5t129 103.5t101.5 150t62.5 195.5zM1788 1083q-97 0 -189 -31.5t-173 -92t-139.5 -161
t-80.5 -227.5h963q28 133 10 230t-77.5 159.5t-139 92.5t-174.5 30zM123 553q31 174 125.5 304t228 196.5t287.5 66.5q193 0 313 -103.5t135 -289.5q77 185 233 289t349 104q122 0 214 -41.5t141 -110t67 -151.5t2 -172q-13 -67 -29 -110h-991q-21 -128 3 -228.5t82.5 -161
t139 -91.5t176.5 -31q186 0 331 94.5t200 257.5h41q-60 -175 -214 -282t-364 -107q-192 0 -310.5 103.5t-131.5 289.5q-79 -185 -237 -289t-351 -104q-236 0 -361 153t-79 414z" />
    <glyph glyph-name="Racute" unicode="&#x154;" horiz-adv-x="1095" 
d="M1047 1036q64 365 -363 365h-319l-129 -733h323q212 0 334.5 100.5t153.5 267.5zM332 1442h360q237 0 333.5 -108.5t64.5 -297.5q-32 -175 -148 -279t-303 -124l276 -633h-51l-274 629h-37h-324l-112 -629h-41zM559 1534l432 274l-8 -49l-430 -266z" />
    <glyph glyph-name="racute" unicode="&#x155;" horiz-adv-x="692" 
d="M117 0h-41l196 1106h41l-47 -270q115 294 488 294l-9 -45h-18q-62 0 -120.5 -12t-118.5 -42t-108.5 -75.5t-87 -118t-56.5 -163.5zM311 1241l432 275l-8 -50l-430 -266z" />
    <glyph glyph-name="uni0156" unicode="&#x156;" horiz-adv-x="1095" 
d="M367 -121h104q-1 -9 -3 -31.5t-3 -31.5q-19 -101 -61 -138.5t-105 -37.5l8 36q47 0 72 28.5t35 82.5l2 14h-64zM1047 1036q64 365 -363 365h-319l-129 -733h323q212 0 334.5 100.5t153.5 267.5zM332 1442h360q237 0 333.5 -108.5t64.5 -297.5q-32 -175 -148 -279
t-303 -124l276 -633h-51l-274 629h-37h-324l-112 -629h-41z" />
    <glyph glyph-name="uni0157" unicode="&#x157;" horiz-adv-x="692" 
d="M18 -121h105q-1 -9 -3 -31.5t-3 -31.5q-19 -101 -61 -138.5t-105 -37.5l8 36q47 0 72 28.5t35 82.5l2 14h-64zM117 0h-41l196 1106h41l-47 -270q115 294 488 294l-9 -45h-18q-62 0 -120.5 -12t-118.5 -42t-108.5 -75.5t-87 -118t-56.5 -163.5z" />
    <glyph glyph-name="Rcaron" unicode="&#x158;" horiz-adv-x="1095" 
d="M1047 1036q64 365 -363 365h-319l-129 -733h323q212 0 334.5 100.5t153.5 267.5zM332 1442h360q237 0 333.5 -108.5t64.5 -297.5q-32 -175 -148 -279t-303 -124l276 -633h-51l-274 629h-37h-324l-112 -629h-41zM791 1597l280 166l-8 -41l-281 -166l-225 166l8 41z" />
    <glyph glyph-name="rcaron" unicode="&#x159;" horiz-adv-x="692" 
d="M117 0h-41l196 1106h41l-47 -270q115 294 488 294l-9 -45h-18q-62 0 -120.5 -12t-118.5 -42t-108.5 -75.5t-87 -118t-56.5 -163.5zM543 1305l280 165l-8 -40l-280 -166l-226 166l8 40z" />
    <glyph glyph-name="Sacute" unicode="&#x15a;" horiz-adv-x="1081" 
d="M918 322q-12 -67 -46.5 -126.5t-89.5 -106.5t-136 -75t-177 -28q-105 0 -185 29.5t-127 79.5t-68.5 112.5t-16.5 132.5h41q-2 -40 5 -79t31 -83.5t63 -77.5t107 -55t156 -22q161 0 270 82t132 217q15 84 -2 149.5t-57 107.5t-96.5 74.5t-120 57t-128 48.5t-120.5 56
t-96.5 73.5t-58 105.5t-3.5 147q23 133 141.5 224t306.5 91q94 0 170 -27.5t121 -72t67.5 -97t20.5 -106.5h-41q2 41 -18 85t-59 85.5t-109 68.5t-158 27q-156 0 -267 -74.5t-134 -203.5q-13 -77 4.5 -136t58.5 -97t97.5 -67.5t121 -54t128 -49.5t119.5 -60t96 -80t56 -115
t1 -160zM500 1534l432 274l-8 -49l-430 -266z" />
    <glyph glyph-name="sacute" unicode="&#x15b;" horiz-adv-x="989" 
d="M797 289q0 -139 -110 -221t-286 -82q-165 0 -258 74t-84 223h41q-9 -122 69 -191t234 -69q164 0 258.5 76t94.5 190q0 50 -20.5 88.5t-54.5 63.5t-78.5 45t-93.5 36.5t-98 33.5t-93.5 40t-78.5 52.5t-54.5 75.5t-20.5 105q0 128 107.5 209.5t265.5 81.5q103 0 184 -38.5
t123.5 -111.5t29.5 -167h-40q12 84 -28 149t-113 98t-163 33q-139 0 -232 -69t-93 -185q0 -59 25.5 -104t67 -71t95 -49t108.5 -38.5t108.5 -39.5t95 -52t67 -75.5t25.5 -110.5zM401 1241l433 275l-9 -50l-430 -266z" />
    <glyph glyph-name="uni015E" unicode="&#x15e;" horiz-adv-x="1081" 
d="M918 322q-12 -67 -46.5 -126.5t-89 -106.5t-134.5 -75t-175 -28l-31 -168q127 7 185.5 -35t44.5 -127q-14 -79 -79 -127.5t-169 -48.5h-129l6 41h123q183 0 207 135q10 56 -27 90.5t-133 34.5h-76l37 207q-186 9 -278 110t-82 242h41q-2 -40 5 -79t31 -83.5t63 -77.5
t107 -55t156 -22q161 0 270 82t132 217q15 84 -2 149.5t-57 107.5t-96.5 74.5t-120 57t-128 48.5t-120.5 56t-96.5 73.5t-58 105.5t-3.5 147q23 133 141.5 224t306.5 91q94 0 170 -27.5t121 -72t67.5 -97t20.5 -106.5h-41q2 41 -18 85t-59 85.5t-109 68.5t-158 27
q-156 0 -267 -74.5t-134 -203.5q-13 -77 4.5 -136t58.5 -97t97.5 -67.5t121 -54t128 -49.5t119.5 -60t96 -80t56 -115t1 -160z" />
    <glyph glyph-name="uni015F" unicode="&#x15f;" horiz-adv-x="989" 
d="M797 289q0 -134 -102.5 -215.5t-268.5 -87.5l-31 -168q127 7 185.5 -35t44.5 -127q-14 -79 -79 -127.5t-169 -48.5h-129l6 41h123q183 0 207 135q10 56 -27 90.5t-133 34.5h-76l37 205q-158 3 -246.5 77.5t-79.5 219.5h41q-9 -122 69 -191t234 -69q164 0 258.5 76
t94.5 190q0 50 -20.5 88.5t-54.5 63.5t-78.5 45t-93.5 36.5t-98 33.5t-93.5 40t-78.5 52.5t-54.5 75.5t-20.5 105q0 128 107.5 209.5t265.5 81.5q103 0 184 -38.5t123.5 -111.5t29.5 -167h-40q12 84 -28 149t-113 98t-163 33q-139 0 -232 -69t-93 -185q0 -59 25.5 -104
t67 -71t95 -49t108.5 -38.5t108.5 -39.5t95 -52t67 -75.5t25.5 -110.5z" />
    <glyph glyph-name="Scaron" unicode="&#x160;" horiz-adv-x="1081" 
d="M918 322q-12 -67 -46.5 -126.5t-89.5 -106.5t-136 -75t-177 -28q-105 0 -185 29.5t-127 79.5t-68.5 112.5t-16.5 132.5h41q-2 -40 5 -79t31 -83.5t63 -77.5t107 -55t156 -22q161 0 270 82t132 217q15 84 -2 149.5t-57 107.5t-96.5 74.5t-120 57t-128 48.5t-120.5 56
t-96.5 73.5t-58 105.5t-3.5 147q23 133 141.5 224t306.5 91q94 0 170 -27.5t121 -72t67.5 -97t20.5 -106.5h-41q2 41 -18 85t-59 85.5t-109 68.5t-158 27q-156 0 -267 -74.5t-134 -203.5q-13 -77 4.5 -136t58.5 -97t97.5 -67.5t121 -54t128 -49.5t119.5 -60t96 -80t56 -115
t1 -160zM731 1597l281 166l-8 -41l-281 -166l-225 166l8 41z" />
    <glyph glyph-name="scaron" unicode="&#x161;" horiz-adv-x="989" 
d="M797 289q0 -139 -110 -221t-286 -82q-165 0 -258 74t-84 223h41q-9 -122 69 -191t234 -69q164 0 258.5 76t94.5 190q0 50 -20.5 88.5t-54.5 63.5t-78.5 45t-93.5 36.5t-98 33.5t-93.5 40t-78.5 52.5t-54.5 75.5t-20.5 105q0 128 107.5 209.5t265.5 81.5q103 0 184 -38.5
t123.5 -111.5t29.5 -167h-40q12 84 -28 149t-113 98t-163 33q-139 0 -232 -69t-93 -185q0 -59 25.5 -104t67 -71t95 -49t108.5 -38.5t108.5 -39.5t95 -52t67 -75.5t25.5 -110.5zM633 1305l280 165l-8 -40l-280 -166l-226 166l9 40z" />
    <glyph glyph-name="uni0162" unicode="&#x162;" horiz-adv-x="962" 
d="M190 1405l9 37h880l-8 -37h-420l-245 -1391h2l-35 -196q127 7 185 -35t44 -127q-14 -79 -79 -127.5t-169 -48.5h-129l6 41h123q183 0 207 135q10 56 -27 90.5t-133 34.5h-75l39 219h-3l248 1405h-420z" />
    <glyph glyph-name="uni0163" unicode="&#x163;" horiz-adv-x="692" 
d="M174 291l137 774h-180l8 41h180l50 283h41l-50 -283h349l-9 -41h-348l-137 -774q-26 -146 16.5 -198t171.5 -52h117l-8 -41h-121h-31l-32 -182q127 7 185 -35t44 -127q-14 -79 -79 -127.5t-169 -48.5h-129l6 41h123q183 0 207 135q10 56 -27 90.5t-133 34.5h-75l38 223
q-100 15 -135 82.5t-10 204.5z" />
    <glyph glyph-name="Tcaron" unicode="&#x164;" horiz-adv-x="962" 
d="M190 1405l9 37h880l-8 -37h-420l-248 -1405h-41l248 1405h-420zM668 1597l280 166l-8 -41l-281 -166l-225 166l8 41z" />
    <glyph glyph-name="tcaron" unicode="&#x165;" horiz-adv-x="692" 
d="M584 1516h114q-5 -74 -16 -142q-16 -91 -57 -125.5t-109 -34.5l6 41q52 0 76.5 23t32.5 70l12 59h-78zM174 291l137 774h-180l8 41h180l50 283h41l-50 -283h349l-9 -41h-348l-137 -774q-26 -146 16.5 -198t171.5 -52h117l-8 -41h-121q-143 0 -193.5 66t-23.5 225z" />
    <glyph glyph-name="Utilde" unicode="&#x168;" horiz-adv-x="1288" 
d="M162 547l160 895h40l-159 -895q-22 -115 -14 -202.5t35.5 -148.5t77.5 -99.5t112.5 -56t140.5 -17.5q97 0 179 28.5t152 88.5t120 163t75 244l160 895h41l-160 -895q-51 -287 -201 -424t-372 -137q-224 0 -330.5 138t-56.5 423zM618 1530q19 63 57.5 99t90.5 36
q34 0 61 -16t42.5 -35t41.5 -35t58 -16q34 0 63.5 25.5t42.5 70.5h37q-12 -56 -54.5 -94.5t-94.5 -38.5q-36 0 -65 16t-45.5 35t-41.5 35t-53 16q-74 0 -103 -98h-37z" />
    <glyph glyph-name="utilde" unicode="&#x169;" horiz-adv-x="1257" 
d="M1182 1106l-197 -1106h-41l53 299q-65 -157 -196 -238t-293 -81q-93 0 -166.5 27.5t-126.5 86.5t-70.5 151t2.5 220l115 641h39l-115 -645q-37 -216 51.5 -330.5t276.5 -114.5q198 0 338.5 128t183.5 378v-4l105 588h41zM555 1237q19 63 57.5 99t89.5 36q34 0 61 -16
t42.5 -35t41.5 -35t58 -16q34 0 64 25.5t43 70.5h37q-12 -56 -55 -94.5t-95 -38.5q-36 0 -65 16t-45.5 35t-41.5 35t-53 16q-73 0 -102 -98h-37z" />
    <glyph glyph-name="Umacron" unicode="&#x16a;" horiz-adv-x="1288" 
d="M162 547l160 895h40l-159 -895q-22 -115 -14 -202.5t35.5 -148.5t77.5 -99.5t112.5 -56t140.5 -17.5q97 0 179 28.5t152 88.5t120 163t75 244l160 895h41l-160 -895q-51 -287 -201 -424t-372 -137q-224 0 -330.5 138t-56.5 423zM518 1642l6 37h633l-6 -37h-633z" />
    <glyph glyph-name="umacron" unicode="&#x16b;" horiz-adv-x="1257" 
d="M1182 1106l-197 -1106h-41l53 299q-65 -157 -196 -238t-293 -81q-93 0 -166.5 27.5t-126.5 86.5t-70.5 151t2.5 220l115 641h39l-115 -645q-37 -216 51.5 -330.5t276.5 -114.5q198 0 338.5 128t183.5 378v-4l105 588h41zM455 1350l6 36h633l-7 -36h-632z" />
    <glyph glyph-name="Ubreve" unicode="&#x16c;" horiz-adv-x="1288" 
d="M162 547l160 895h40l-159 -895q-22 -115 -14 -202.5t35.5 -148.5t77.5 -99.5t112.5 -56t140.5 -17.5q97 0 179 28.5t152 88.5t120 163t75 244l160 895h41l-160 -895q-51 -287 -201 -424t-372 -137q-224 0 -330.5 138t-56.5 423zM1098 1767q-14 -84 -86.5 -148.5
t-192.5 -64.5q-62 0 -107 19t-67 51t-29.5 68t-1.5 75l2 9h41q-15 -88 29 -136.5t139 -48.5t157 48.5t77 136.5h41z" />
    <glyph glyph-name="ubreve" unicode="&#x16d;" horiz-adv-x="1257" 
d="M1182 1106l-197 -1106h-41l53 299q-65 -157 -196 -238t-293 -81q-93 0 -166.5 27.5t-126.5 86.5t-70.5 151t2.5 220l115 641h39l-115 -645q-37 -216 51.5 -330.5t276.5 -114.5q198 0 338.5 128t183.5 378v-4l105 588h41zM1034 1475q-14 -84 -86 -148.5t-192 -64.5
q-62 0 -107 19t-67 51t-29.5 68t-1.5 75l2 8h41q-15 -88 29 -136.5t139 -48.5t156.5 48.5t76.5 136.5h41z" />
    <glyph glyph-name="Uring" unicode="&#x16e;" horiz-adv-x="1288" 
d="M162 547l160 895h40l-159 -895q-22 -115 -14 -202.5t35.5 -148.5t77.5 -99.5t112.5 -56t140.5 -17.5q97 0 179 28.5t152 88.5t120 163t75 244l160 895h41l-160 -895q-51 -287 -201 -424t-372 -137q-224 0 -330.5 138t-56.5 423zM668 1737q15 84 77 134t140 50t122 -50
t29 -134t-77 -134.5t-140 -50.5t-122 50.5t-29 134.5zM995 1737q12 68 -21.5 107.5t-96.5 39.5t-109.5 -39.5t-58.5 -107.5t20.5 -108t95.5 -40t110.5 40t59.5 108z" />
    <glyph glyph-name="uring" unicode="&#x16f;" horiz-adv-x="1257" 
d="M1182 1106l-197 -1106h-41l53 299q-65 -157 -196 -238t-293 -81q-93 0 -166.5 27.5t-126.5 86.5t-70.5 151t2.5 220l115 641h39l-115 -645q-37 -216 51.5 -330.5t276.5 -114.5q198 0 338.5 128t183.5 378v-4l105 588h41zM932 1444q12 67 -22 107t-97 40t-109.5 -39.5
t-58.5 -107.5t21 -108t96 -40t110.5 40t59.5 108zM604 1444q15 84 77 134t140 50t122.5 -50t29.5 -134t-77 -134t-140 -50t-122.5 50t-29.5 134z" />
    <glyph glyph-name="Uhungarumlaut" unicode="&#x170;" horiz-adv-x="1288" 
d="M162 547l160 895h40l-159 -895q-22 -115 -14 -202.5t35.5 -148.5t77.5 -99.5t112.5 -56t140.5 -17.5q97 0 179 28.5t152 88.5t120 163t75 244l160 895h41l-160 -895q-51 -287 -201 -424t-372 -137q-224 0 -330.5 138t-56.5 423zM1067 1737h47l-178 -213h-41zM827 1737h47
l-167 -213h-41z" />
    <glyph glyph-name="uhungarumlaut" unicode="&#x171;" horiz-adv-x="1257" 
d="M1182 1106l-197 -1106h-41l53 299q-65 -157 -196 -238t-293 -81q-93 0 -166.5 27.5t-126.5 86.5t-70.5 151t2.5 220l115 641h39l-115 -645q-37 -216 51.5 -330.5t276.5 -114.5q198 0 338.5 128t183.5 378v-4l105 588h41zM764 1444h47l-168 -213h-41zM1004 1444h47
l-179 -213h-41z" />
    <glyph glyph-name="Uogonek" unicode="&#x172;" horiz-adv-x="1288" 
d="M162 547l160 895h40l-159 -895q-22 -115 -14 -202.5t35.5 -148.5t77.5 -99.5t112.5 -56t140.5 -17.5q60 0 107 8l2 2q160 29 268 154t149 360l160 895h41l-160 -895q-43 -246 -161.5 -382.5t-294.5 -168.5l-148 -64q-157 -66 -174 -168q-10 -57 23.5 -85.5t97.5 -28.5
q59 0 135 26l-8 -41q-67 -24 -133 -24q-81 0 -125 38t-31 113q23 130 209 207l39 17h-2q-224 0 -330.5 138t-56.5 423z" />
    <glyph glyph-name="uogonek" unicode="&#x173;" horiz-adv-x="1257" 
d="M1182 1106l-197 -1106l-158 -68q-157 -66 -174 -168q-10 -57 23.5 -85.5t97.5 -28.5q59 0 135 26l-8 -41q-67 -24 -133 -24q-81 0 -125 38t-31 113q23 130 209 207l127 54l49 276q-65 -157 -196 -238t-293 -81q-93 0 -166.5 27.5t-126.5 86.5t-70.5 151t2.5 220l115 641
h39l-115 -645q-37 -216 51.5 -330.5t276.5 -114.5q198 0 338.5 128t183.5 378v-4l105 588h41z" />
    <glyph glyph-name="Wcircumflex" unicode="&#x174;" horiz-adv-x="1851" 
d="M360 0l-131 1442h50l120 -1354l660 1354h49l180 -1354l600 1354h49l-643 -1442h-41l-184 1368l-668 -1368h-41zM1313 1647l-6 -41l-224 166l-282 -166l6 41l285 165z" />
    <glyph glyph-name="wcircumflex" unicode="&#x175;" horiz-adv-x="1644" 
d="M291 0l-152 1106h45l142 -1022l577 1022h35l217 -1022l502 1022h45l-545 -1106h-31l-219 1032l-585 -1032h-31zM1208 1311l-6 -41l-223 166l-283 -166l6 41l285 166z" />
    <glyph glyph-name="Ycircumflex" unicode="&#x176;" horiz-adv-x="1060" 
d="M520 604l-301 838h49l281 -793l559 793h49l-596 -838l-106 -604h-41zM969 1604l-6 -41l-224 166l-282 -166l6 41l285 165z" />
    <glyph glyph-name="ycircumflex" unicode="&#x177;" horiz-adv-x="1030" 
d="M414 -4l-275 1110h45l265 -1047l593 1047h45l-917 -1626h-49zM903 1311l-6 -41l-223 166l-283 -166l6 41l285 166z" />
    <glyph glyph-name="Ydieresis" unicode="&#x178;" horiz-adv-x="1060" 
d="M520 604l-301 838h49l281 -793l559 793h49l-596 -838l-106 -604h-41zM578 1577q-23 0 -36.5 14.5t-13.5 36.5q0 28 21.5 50t50.5 22q21 0 34 -14.5t13 -36.5q0 -28 -21 -50t-48 -22zM852 1577q-23 0 -36 14.5t-13 36.5q0 28 21 50t50 22q21 0 34.5 -14t13.5 -35
q0 -29 -21 -51.5t-49 -22.5z" />
    <glyph glyph-name="Zacute" unicode="&#x179;" horiz-adv-x="997" 
d="M1063 1442l-8 -41l-1028 -1362h809l-9 -39h-854l9 39l1030 1362h-764l8 41h807zM455 1534l432 274l-8 -49l-430 -266z" />
    <glyph glyph-name="zacute" unicode="&#x17a;" horiz-adv-x="833" 
d="M850 1106l-8 -37l-828 -1032h668l-8 -37h-711l8 37l826 1032h-625l8 37h670zM322 1241l432 275l-9 -50l-430 -266z" />
    <glyph glyph-name="Zdotaccent" unicode="&#x17b;" horiz-adv-x="997" 
d="M1063 1442l-8 -41l-1028 -1362h809l-9 -39h-854l9 39l1030 1362h-764l8 41h807zM674 1532q-25 0 -40 18t-11 43q5 25 26.5 43.5t46.5 18.5t39.5 -18.5t9.5 -43.5t-25.5 -43t-45.5 -18z" />
    <glyph glyph-name="zdotaccent" unicode="&#x17c;" horiz-adv-x="833" 
d="M850 1106l-8 -37l-828 -1032h668l-8 -37h-711l8 37l826 1032h-625l8 37h670zM541 1239q-25 0 -40.5 18t-11.5 43t26.5 43.5t47.5 18.5t39.5 -18.5t9.5 -43.5t-25.5 -43t-45.5 -18z" />
    <glyph glyph-name="Zcaron" unicode="&#x17d;" horiz-adv-x="997" 
d="M1063 1442l-8 -41l-1028 -1362h809l-9 -39h-854l9 39l1030 1362h-764l8 41h807zM686 1597l281 166l-9 -41l-280 -166l-225 166l8 41z" />
    <glyph glyph-name="zcaron" unicode="&#x17e;" horiz-adv-x="833" 
d="M850 1106l-8 -37l-828 -1032h668l-8 -37h-711l8 37l826 1032h-625l8 37h670zM553 1305l281 165l-9 -40l-280 -166l-226 166l9 40z" />
    <glyph glyph-name="uni018F" unicode="&#x18f;" horiz-adv-x="1572" 
d="M670 20q143 0 274.5 53.5t230.5 145t167.5 215.5t93.5 264h-1241q-37 -150 -19 -275t78.5 -214.5t167.5 -139t248 -49.5zM1448 848v24q0 250 -146 397.5t-378 147.5q-142 0 -276 -54.5t-243 -161t-167 -249.5h-43q91 228 290.5 365t444.5 137q256 0 409.5 -160.5
t153.5 -419.5q0 -179 -61 -341.5t-168.5 -284t-264 -193t-337.5 -71.5q-244 0 -389.5 140.5t-145.5 375.5q0 108 33 233h1280q8 49 8 115z" />
    <glyph glyph-name="florin" unicode="&#x192;" horiz-adv-x="677" 
d="M451 1247q80 295 421 295l-8 -37q-304 0 -375 -258l-40 -141h319l-10 -37h-320l-321 -1139q-31 -106 -86 -157.5t-168 -51.5h-62l11 37h55q88 0 134 34.5t75 137.5l323 1139h-178l8 37h181z" />
    <glyph glyph-name="uni01FC" unicode="&#x1fc;" horiz-adv-x="1714" 
d="M1055 1577l432 274l-8 -49l-430 -266zM1051 1366l-738 -932h574zM1761 1405h-663l-117 -666h602l-6 -37h-602l-117 -665h664l-9 -37h-704l70 397h-594l-316 -397h-47l1143 1442h704z" />
    <glyph glyph-name="uni01FD" unicode="&#x1fd;" horiz-adv-x="2324" 
d="M1788 1083q-97 0 -189 -31.5t-173 -92t-139.5 -161t-80.5 -227.5h963q28 133 10 230t-77.5 159.5t-139 92.5t-174.5 30zM2171 375q-60 -175 -214 -282t-364 -107q-181 0 -299.5 95.5t-128.5 276.5l-63 -358h-39l63 356q-73 -166 -223 -268t-342 -102q-241 0 -362 153
t-76 414q30 173 121.5 302.5t225.5 197t292 67.5q191 0 305 -102t129 -268l64 356h38l-63 -358q72 178 225.5 275t333.5 97q122 0 214 -41.5t141 -110t67 -151.5t2 -172q-13 -67 -29 -110h-991q-21 -128 3 -228t82.5 -161t139 -92t176.5 -31q186 0 331 94.5t200 257.5h41z
M164 553q-43 -247 66 -388.5t337 -141.5q219 0 385.5 146.5t208.5 383.5t-72 383.5t-333 146.5q-229 0 -389.5 -142t-202.5 -388zM1276 1241l432 275l-8 -50l-430 -266z" />
    <glyph glyph-name="uni0218" unicode="&#x218;" horiz-adv-x="1097" 
d="M428 -121h104q-1 -9 -3 -31.5t-3 -31.5q-19 -101 -61 -138.5t-105 -37.5l9 36q47 0 71.5 28.5t34.5 82.5l2 14h-63zM918 322q-12 -67 -46.5 -126.5t-89.5 -106.5t-136 -75t-177 -28q-105 0 -185 29.5t-127 79.5t-68.5 112.5t-16.5 132.5h41q-2 -40 5 -79t31 -83.5
t63 -77.5t107 -55t156 -22q161 0 270 82t132 217q15 84 -2 149.5t-57 107.5t-96.5 74.5t-120 57t-128 48.5t-120.5 56t-96.5 73.5t-58 105.5t-3.5 147q23 133 141.5 224t306.5 91q94 0 170 -27.5t121 -72t67.5 -97t20.5 -106.5h-41q2 41 -18 85t-59 85.5t-109 68.5t-158 27
q-156 0 -267 -74.5t-134 -203.5q-13 -77 4.5 -136t58.5 -97t97.5 -67.5t121 -54t128 -49.5t119.5 -60t96 -80t56 -115t1 -160z" />
    <glyph glyph-name="uni0219" unicode="&#x219;" horiz-adv-x="989" 
d="M367 -121h104q-1 -9 -3 -31.5t-3 -31.5q-19 -101 -61 -138.5t-105 -37.5l8 36q47 0 72 28.5t35 82.5l2 14h-64zM797 289q0 -139 -110 -221t-286 -82q-165 0 -258 74t-84 223h41q-9 -122 69 -191t234 -69q164 0 258.5 76t94.5 190q0 50 -20.5 88.5t-54.5 63.5t-78.5 45
t-93.5 36.5t-98 33.5t-93.5 40t-78.5 52.5t-54.5 75.5t-20.5 105q0 128 107.5 209.5t265.5 81.5q103 0 184 -38.5t123.5 -111.5t29.5 -167h-40q12 84 -28 149t-113 98t-163 33q-139 0 -232 -69t-93 -185q0 -59 25.5 -104t67 -71t95 -49t108.5 -38.5t108.5 -39.5t95 -52
t67 -75.5t25.5 -110.5z" />
    <glyph glyph-name="uni021A" unicode="&#x21a;" horiz-adv-x="962" 
d="M305 -121h105l-7 -63q-19 -101 -60.5 -138.5t-104.5 -37.5l8 36q47 0 71.5 28.5t34.5 82.5l2 14h-63zM190 1405l9 37h880l-8 -37h-420l-248 -1405h-41l248 1405h-420z" />
    <glyph glyph-name="uni021B" unicode="&#x21b;" horiz-adv-x="692" 
d="M244 -121h104q-1 -9 -3 -31.5t-3 -31.5q-19 -101 -61 -138.5t-105 -37.5l8 36q47 0 72 28.5t35 82.5l2 14h-64zM174 291l137 774h-180l8 41h180l50 283h41l-50 -283h349l-9 -41h-348l-137 -774q-26 -146 16.5 -198t171.5 -52h117l-8 -41h-121q-143 0 -193.5 66t-23.5 225
z" />
    <glyph glyph-name="uni0259" unicode="&#x259;" horiz-adv-x="1286" 
d="M537 23q97 0 189 31.5t172.5 92t139 161t80.5 227.5h-962q-28 -133 -10 -230t77.5 -159.5t139 -92.5t174.5 -30zM530 -14q-122 0 -214 41.5t-141 110t-67 151.5t-2 172q16 82 23 110h997q21 128 -3 228.5t-82.5 161t-139 91.5t-176.5 31q-186 0 -330.5 -94.5
t-199.5 -257.5h-41q60 175 213.5 282t363.5 107q235 0 356.5 -152.5t75.5 -414.5q-31 -174 -123 -304t-224 -196.5t-286 -66.5z" />
    <glyph glyph-name="uni02BC" unicode="&#x2bc;" horiz-adv-x="299" 
d="M186 1049h-36l180 393h65z" />
    <glyph glyph-name="circumflex" unicode="&#x2c6;" horiz-adv-x="669" 
d="M721 1311l-6 -41l-223 166l-283 -166l6 41l285 166z" />
    <glyph glyph-name="caron" unicode="&#x2c7;" horiz-adv-x="669" 
d="M469 1305l281 165l-9 -40l-280 -166l-225 166l8 40z" />
    <glyph glyph-name="uni02C9" unicode="&#x2c9;" horiz-adv-x="796" 
d="M223 1350l6 36h633l-6 -36h-633z" />
    <glyph glyph-name="breve" unicode="&#x2d8;" horiz-adv-x="647" 
d="M727 1475q-14 -84 -86 -148.5t-192 -64.5q-62 0 -107 19t-67 51t-29.5 68t-1.5 75l2 8h41q-15 -88 29 -136.5t139 -48.5t156.5 48.5t76.5 136.5h41z" />
    <glyph glyph-name="dotaccent" unicode="&#x2d9;" horiz-adv-x="315" 
d="M287 1284q-25 0 -40 18.5t-11 43.5t26 43t47 18t39.5 -18t9.5 -43t-25.5 -43.5t-45.5 -18.5z" />
    <glyph glyph-name="ring" unicode="&#x2da;" horiz-adv-x="532" 
d="M240 1444q15 84 77 134t140 50t122 -50t29 -134t-77 -134t-140 -50t-122 50t-29 134zM567 1444q12 68 -21.5 107.5t-96.5 39.5t-109.5 -39.5t-58.5 -107.5t20.5 -108t95.5 -40t110.5 40t59.5 108z" />
    <glyph glyph-name="ogonek" unicode="&#x2db;" horiz-adv-x="538" 
d="M174 -31l152 64l12 -33l-158 -68q-157 -66 -174 -168q-10 -57 23.5 -85.5t97.5 -28.5q59 0 135 26l-8 -41q-67 -24 -133 -24q-81 0 -125 38t-31 113q23 130 209 207z" />
    <glyph glyph-name="tilde" unicode="&#x2dc;" horiz-adv-x="634" 
d="M203 1237q19 63 57.5 99t89.5 36q34 0 61 -16t42.5 -35t41.5 -35t58 -16q34 0 63.5 25.5t42.5 70.5h37q-12 -56 -54.5 -94.5t-94.5 -38.5q-36 0 -65 16t-45.5 35t-41.5 35t-53 16q-73 0 -102 -98h-37z" />
    <glyph glyph-name="hungarumlaut" unicode="&#x2dd;" horiz-adv-x="573" 
d="M602 1444h47l-178 -213h-41zM362 1444h48l-168 -213h-41z" />
    <glyph glyph-name="pi" unicode="&#x3c0;" horiz-adv-x="1476" 
d="M223 1069l8 37h1211l-8 -37h-179l-188 -1069h-41l188 1069h-772l-188 -1069h-41l188 1069h-178z" />
    <glyph glyph-name="dvCandrabindu" unicode="&#x901;" horiz-adv-x="0" 
d="M-106 1688q-88 0 -154.5 27.5t-101.5 72t-48.5 95.5t-3.5 102h33q-8 -47 3 -92t40.5 -84.5t88 -64t138.5 -24.5q153 0 250.5 82t114.5 183h33q-10 -52 -38.5 -102t-75 -95t-119.5 -72.5t-160 -27.5zM-59 2003q-23 0 -33.5 13.5t-7.5 35.5t19.5 35.5t39.5 13.5
q22 0 33.5 -13.5t7.5 -35.5q-5 -22 -21 -35.5t-38 -13.5z" />
    <glyph glyph-name="dvAnusvara" unicode="&#x902;" horiz-adv-x="0" 
d="M-98 1751q-22 0 -34 13.5t-9 35.5t19 35.5t38 13.5q23 0 34.5 -13.5t8.5 -35.5t-19 -35.5t-38 -13.5z" />
    <glyph glyph-name="dvVisarga" unicode="&#x903;" horiz-adv-x="387" 
d="M244 1001q-23 0 -35.5 14t-7.5 36q3 22 19.5 35.5t39.5 13.5q22 0 33 -13.5t8 -35.5q-5 -22 -20.5 -36t-36.5 -14zM129 354q-23 0 -34.5 13.5t-8.5 35.5q5 22 20.5 36t38.5 14q22 0 33.5 -14t7.5 -36q-3 -22 -19 -35.5t-38 -13.5z" />
    <glyph glyph-name="dvA" unicode="&#x905;" horiz-adv-x="1671" 
d="M621 868q87 0 161 27.5t121.5 72.5t77 97t39.5 106q14 77 -3 140t-58 104.5t-100.5 63.5t-131.5 22q-158 0 -279 -86.5t-145 -232.5h-35q19 108 87.5 189t166 122t211.5 41q166 0 258.5 -97t65.5 -257q-23 -127 -109 -214.5t-229 -111.5v-2q55 -6 104 -31h566l122 695
h365l-4 -33h-332l-262 -1483h-35l139 788l-512 3q60 -50 84 -131t9 -173q-31 -175 -161.5 -282t-314.5 -107q-185 0 -287.5 112t-70.5 290h35q-29 -163 64.5 -266t263.5 -103q169 0 288.5 98.5t147.5 257.5q9 40 6 81.5t-13 80t-35.5 73t-61 60t-89.5 40t-121 14.5h-69l6 32
h70z" />
    <glyph glyph-name="dvAA" unicode="&#x906;" horiz-adv-x="2226" 
d="M621 868q87 0 161 27.5t121.5 72.5t77 97t39.5 106q14 77 -3 140t-58 104.5t-100.5 63.5t-131.5 22q-158 0 -279 -86.5t-145 -232.5h-35q19 108 87.5 189t166 122t211.5 41q166 0 258.5 -97t65.5 -257q-23 -127 -109 -214.5t-229 -111.5v-2q55 -6 104 -31h566l122 695
h920l-6 -33h-332l-260 -1483h-35l260 1483h-518l-262 -1483h-35l139 788l-512 3q60 -50 84 -131t9 -173q-31 -175 -161.5 -282t-314.5 -107q-185 0 -287.5 112t-70.5 290h35q-29 -163 64.5 -266t263.5 -103q169 0 288.5 98.5t147.5 257.5q9 40 6 81.5t-13 80t-35.5 73
t-61 60t-89.5 40t-121 14.5h-69l6 32h70z" />
    <glyph glyph-name="dvI" unicode="&#x907;" horiz-adv-x="1191" 
d="M39 1483l4 33h1397l-4 -33h-351l-59 -332l-6 -33h-346q-354 0 -395 -239q-12 -64 4.5 -111t56.5 -73.5t91.5 -39t115.5 -12.5h92q65 0 120.5 -10t107.5 -34t83.5 -62.5t47 -95.5t-0.5 -134q-25 -141 -136 -233t-298 -92q-83 0 -151.5 20t-110 49.5t-70.5 67t-41 69
t-14 58.5l-67 -389h-33l90 520h31q-9 -160 85.5 -261.5t286.5 -101.5q166 0 269 84.5t125 208.5q12 70 -1 124t-44.5 87.5t-79.5 54.5t-98.5 29t-108.5 8h-92q-97 0 -167.5 27.5t-107 89.5t-20.5 152q13 78 56 133.5t104.5 84.5t125 41.5t134.5 12.5h327l60 332h-1012z" />
    <glyph glyph-name="dvII" unicode="&#x908;" horiz-adv-x="1191" 
d="M176 246l-67 -389h-33l90 520h31q-9 -160 85.5 -261.5t286.5 -101.5q166 0 269 84.5t125 208.5q12 70 -1 124t-44.5 87.5t-79.5 54.5t-98.5 29t-108.5 8h-92q-97 0 -167.5 27.5t-107 89.5t-20.5 152q13 78 56 133.5t104.5 84.5t125 41.5t134.5 12.5h327l60 332h-1012
l4 33h1012l30 170q30 172 120 261t225 89q123 0 182 -78.5t37 -200.5h-33q19 106 -33.5 176t-159.5 70q-123 0 -201 -81.5t-104 -238.5l-28 -167h350l-4 -33h-351l-59 -332l-6 -33h-346q-354 0 -395 -239q-12 -64 4.5 -111t56.5 -73.5t91.5 -39t115.5 -12.5h92
q65 0 120.5 -10t107.5 -34t83.5 -62.5t47 -95.5t-0.5 -134q-25 -141 -136 -233t-298 -92q-83 0 -151.5 20t-110 49.5t-70.5 67t-41 69t-14 58.5z" />
    <glyph glyph-name="dvU" unicode="&#x909;" horiz-adv-x="1196" 
d="M55 1483l6 33h1340l-6 -33h-312l-51 -291q-23 -127 -111.5 -216t-205.5 -106l-2 -2q149 -26 218 -146t42 -280q-34 -193 -173 -315.5t-339 -122.5q-201 0 -312 127t-79 313h34q-20 -113 21 -206.5t131.5 -147t210.5 -53.5q181 0 309.5 113t161.5 292q11 46 7.5 94
t-14 93.5t-38.5 85.5t-66 70t-97 47.5t-132 17.5h-70l7 33h69q169 0 270 91t125 224l50 285h-994z" />
    <glyph glyph-name="dvUU" unicode="&#x90a;" horiz-adv-x="1794" 
d="M55 1483l6 33h1938l-6 -33h-910l-51 -291q-23 -127 -111.5 -216t-205.5 -106l-2 -2h477q76 0 141 -13t121.5 -42.5t90.5 -76.5t49.5 -114.5t-1.5 -156.5q-19 -107 -66.5 -186t-113.5 -122.5t-138.5 -64t-154.5 -20.5q-24 0 -74 4l7 30q54 -4 73 -4q76 0 143.5 19.5
t127 60.5t101.5 113t60 170q18 101 -4.5 175t-77.5 115.5t-126.5 61t-161.5 19.5h-373q98 -52 140 -158t20 -236q-34 -193 -173 -315.5t-339 -122.5q-201 0 -312 127t-79 313h34q-20 -113 21 -206.5t131.5 -147t210.5 -53.5q181 0 309.5 113t161.5 292q11 46 7.5 94
t-14 93.5t-38.5 85.5t-66 70t-97 47.5t-132 17.5h-70l7 33h69q169 0 270 91t125 224l50 285h-994z" />
    <glyph glyph-name="dvvR" unicode="&#x90b;" horiz-adv-x="2035" 
d="M928 0l135 772v0l-854 -772h-37l2 8l895 809q12 162 -80.5 266.5t-263.5 104.5q-198 0 -346 -126.5t-186 -340.5h-35q40 227 200.5 363.5t368.5 136.5q153 0 248 -73.5t119 -197.5l94 533h-1133l6 33h2180l-7 -33h-1011l-107 -611h428q195 0 238 158l35 195h34l-122 -699
l-7 -32h-24q-140 0 -233.5 -80t-114.5 -201q-13 -72 1 -126.5t49 -86t83 -46.5t108 -15q63 0 121 20l-6 -33q-50 -20 -121 -20q-52 0 -97 11.5t-82.5 35t-61 59.5t-32.5 86.5t3 114.5q24 134 127 223.5t252 89.5l71 406q-76 -92 -229 -92h-426l-147 -840h-35z" />
    <glyph glyph-name="dvvL" unicode="&#x90c;" horiz-adv-x="1832" 
d="M55 1483l6 33h1977l-6 -33h-602l-60 -336q167 -9 238.5 -134t40.5 -315q-19 -114 -70 -204h-16q-140 0 -234 -80.5t-115 -200.5q-13 -72 1 -126.5t49.5 -86t83.5 -46.5t108 -15q63 0 121 20l-6 -33q-50 -20 -121 -20q-52 0 -97 11.5t-82.5 35t-61 59.5t-32.5 86.5
t3 114.5q24 134 127 223.5t252 89.5q41 87 55 172q18 85 8 160.5t-39.5 132.5t-89.5 90t-143 33q-174 0 -293 -132.5t-148 -360.5l-2 -17h-35l2 17q61 493 -245 493q-172 0 -285 -115.5t-145 -300.5q-23 -130 4 -229.5t113 -160t223 -60.5q15 0 65 4l-6 -35q-50 -4 -70 -4
q-146 0 -237.5 65.5t-121 173t-5.5 246.5q35 201 156 325t307 124q82 0 142 -32.5t91.5 -86t44.5 -113t10 -122.5h5q21 66 53.5 124t82 112t121.5 86t158 32l60 336h-1340z" />
    <glyph glyph-name="dvEcandra" unicode="&#x90d;" horiz-adv-x="1333" 
d="M801 1749q-88 0 -153 27.5t-98 72t-45 95.5t-3 102h33q-4 -36 -1 -73t24 -71.5t51.5 -61t82 -42.5t115.5 -16q79 0 146 24t111 63.5t70.5 85t34.5 91.5h33q-9 -51 -39 -102t-78 -95.5t-122.5 -72t-161.5 -27.5zM6 1483l6 33h1477l-6 -33h-275l-53 -303
q-40 -225 -141.5 -317.5t-296.5 -80.5l6 33q177 -12 268.5 73t128.5 292l54 303h-816l-161 -914q-44 -230 51 -363.5t317 -133.5q196 0 315.5 114t155.5 326h35q-37 -225 -168 -349t-344 -124q-240 0 -340.5 142.5t-56.5 387.5l162 914h-318z" />
    <glyph glyph-name="dvE" unicode="&#x90f;" horiz-adv-x="1331" 
d="M53 1483l6 33h1477l-6 -33h-275l-53 -303q-40 -225 -141.5 -317.5t-296.5 -80.5l6 33q177 -12 268.5 73t128.5 292l54 303h-815l-162 -914q-44 -230 51 -363.5t317 -133.5q196 0 315.5 114t155.5 326h35q-37 -225 -168 -349t-344 -124q-240 0 -340.5 142.5t-56.5 387.5
l162 914h-318z" />
    <glyph glyph-name="dvAI" unicode="&#x910;" horiz-adv-x="1331" 
d="M606 39q-240 0 -340.5 142.5t-56.5 387.5l162 914h-318l6 33h1164q-35 77 -64.5 135t-59 102.5t-54 75.5t-54.5 52t-54 33t-59.5 18.5t-65 8t-75.5 1.5h-65l6 32h65q44 0 71.5 -1.5t62.5 -6t58 -13.5t52.5 -25t52 -40t50 -57.5t53.5 -79t55 -103.5t62 -132h276l-6 -33
h-275l-53 -303q-40 -225 -141.5 -317.5t-296.5 -80.5l6 33q177 -12 268.5 73t128.5 292l54 303h-815l-162 -914q-44 -230 51 -363.5t317 -133.5q196 0 315.5 114t155.5 326h35q-37 -225 -168 -349t-344 -124z" />
    <glyph glyph-name="dvOcandra" unicode="&#x911;" horiz-adv-x="2226" 
d="M621 868q87 0 161 27.5t121.5 72.5t77 97t39.5 106q14 77 -3 140t-58 104.5t-100.5 63.5t-131.5 22q-158 0 -279 -86.5t-145 -232.5h-35q19 108 87.5 189t166 122t211.5 41q166 0 258.5 -97t65.5 -257q-23 -127 -109 -214.5t-229 -111.5v-2q55 -6 104 -31h566l122 695
h920l-6 -33h-332l-260 -1483h-35l260 1483h-518l-262 -1483h-35l139 788l-512 3q60 -50 84 -131t9 -173q-31 -175 -161.5 -282t-314.5 -107q-185 0 -287.5 112t-70.5 290h35q-29 -163 64.5 -266t263.5 -103q169 0 288.5 98.5t147.5 257.5q9 40 6 81.5t-13 80t-35.5 73
t-61 60t-89.5 40t-121 14.5h-69l6 32h70zM2044 1749q-88 0 -154.5 27.5t-101 72t-48 95.5t-3.5 102h32q-8 -47 3 -92t41 -84.5t88.5 -63.5t138.5 -24q153 0 250 81.5t114 182.5h33q-10 -52 -38.5 -102t-75 -95t-119.5 -72.5t-160 -27.5z" />
    <glyph glyph-name="dvO" unicode="&#x913;" horiz-adv-x="2226" 
d="M1278 0h-35l139 788l-512 3q60 -50 84 -131t9 -173q-31 -175 -161.5 -282t-314.5 -107q-185 0 -287.5 112t-70.5 290h35q-29 -163 64.5 -266t263.5 -103q169 0 288.5 98.5t147.5 257.5q9 40 6 81.5t-13 80t-35.5 73t-61 60t-89.5 40t-121 14.5h-69l6 32h70q87 0 161 27.5
t121.5 72.5t77 97t39.5 106q14 77 -3 140t-58 104.5t-100.5 63.5t-131.5 22q-158 0 -279 -86.5t-145 -232.5h-35q19 108 87.5 189t166 122t211.5 41q166 0 258.5 -97t65.5 -257q-23 -127 -109 -214.5t-229 -111.5v-2q55 -6 104 -31h566l122 695h721q-35 77 -65 135
t-59.5 103t-53.5 75.5t-54 51.5t-54 33t-59.5 18.5t-64.5 8t-75 1.5h-66l7 32h65q50 0 80 -1.5t68 -8t63.5 -19t57.5 -35.5t57.5 -56t57 -81t63.5 -111t69 -146h162l-6 -33h-332l-260 -1483h-35l260 1483h-518z" />
    <glyph glyph-name="dvAU" unicode="&#x914;" horiz-adv-x="2226" 
d="M1278 0h-35l139 788l-512 3q60 -50 84 -131t9 -173q-31 -175 -161.5 -282t-314.5 -107q-185 0 -287.5 112t-70.5 290h35q-29 -163 64.5 -266t263.5 -103q169 0 288.5 98.5t147.5 257.5q9 40 6 81.5t-13 80t-35.5 73t-61 60t-89.5 40t-121 14.5h-69l6 32h70q87 0 161 27.5
t121.5 72.5t77 97t39.5 106q14 77 -3 140t-58 104.5t-100.5 63.5t-131.5 22q-158 0 -279 -86.5t-145 -232.5h-35q19 108 87.5 189t166 122t211.5 41q166 0 258.5 -97t65.5 -257q-23 -127 -109 -214.5t-229 -111.5v-2q55 -6 104 -31h566l122 695h727q-63 69 -115.5 113
t-94.5 70.5t-94.5 39t-95.5 15.5t-118 3h-65l6 33h65q75 0 116 -2.5t94 -14t93.5 -35.5t90.5 -66t108 -107q-31 86 -57.5 151.5t-53.5 116t-49.5 85t-51 58.5t-51.5 37t-57.5 20t-62.5 9t-73 2h-66l4 33h66q44 0 71.5 -1.5t62 -7t57 -17t51 -31t50.5 -49t48 -70.5t50 -97
t51.5 -127t57.5 -161h156l-6 -33h-332l-260 -1483h-35l260 1483h-518z" />
    <glyph glyph-name="dvKA" unicode="&#x915;" horiz-adv-x="2091" 
d="M905 0l96 545q-64 -124 -183 -204.5t-279 -80.5q-95 0 -171.5 32t-127.5 92.5t-70.5 149t0.5 201.5q25 140 103.5 246t188.5 160.5t234 54.5q164 0 256 -81.5t113 -207.5l100 576h-1110l6 33h2235l-6 -33h-1092l-102 -580q65 129 180 211t276 82q89 0 163.5 -32
t125 -90.5t71 -146t1.5 -192.5q-39 -221 -182 -348t-334 -127q-61 0 -115 12l6 33q50 -12 115 -12q171 0 305 118.5t170 323.5q34 195 -62.5 311.5t-265.5 116.5q-84 0 -157 -25.5t-126 -67.5t-95 -98t-67 -114t-38 -119l-129 -739h-33zM541 293q85 0 160.5 26.5t129 68.5
t95.5 97t66 110t36 110l6 32q10 47 6.5 97.5t-14 97.5t-38.5 89t-66 73.5t-97 50t-131 18.5q-112 0 -214 -50t-177 -149t-98 -229q-36 -206 60.5 -324t275.5 -118z" />
    <glyph glyph-name="dvKHA" unicode="&#x916;" horiz-adv-x="1861" 
d="M1434 0l102 582q-58 -111 -164.5 -183.5t-249.5 -72.5q-46 0 -94 10q-75 -146 -206.5 -241t-299.5 -95q-204 0 -307 118.5t-68 319.5l66 369h90q44 0 84 7.5t86.5 30t83 59t67.5 100.5t46 149l57 330h-672l6 33h2005l-6 -33h-331l-261 -1483h-34zM1128 358q94 0 174 35.5
t132.5 93t85 122t43.5 130.5q10 44 7 89.5t-13 88.5t-36 80.5t-61 65.5t-89 44.5t-120 16.5q-158 0 -281 -101t-153 -273q-31 -182 58.5 -287t252.5 -105zM530 33q149 0 275.5 91.5t189.5 221.5q-119 38 -178.5 144.5t-34.5 259.5q32 186 165 296.5t308 110.5
q150 0 233.5 -71.5t102.5 -182.5l103 580h-932l-57 -330q-20 -113 -62.5 -190.5t-102 -117t-120.5 -55.5t-135 -16h-43l-60 -336q-32 -185 62 -295t286 -110z" />
    <glyph glyph-name="dvGA" unicode="&#x917;" horiz-adv-x="1398" 
d="M971 0l260 1483h-459l-113 -635q-22 -126 -98.5 -207.5t-208.5 -81.5q-88 0 -142.5 42.5t-71 105.5t-3.5 137l12 61h35l-12 -63q-5 -36 -5.5 -71t12 -67.5t32.5 -57t57 -39.5t86 -15q64 0 114 22t81 60t50 80.5t28 93.5l112 635h-682l6 33h1543l-7 -33h-331l-260 -1483
h-35z" />
    <glyph glyph-name="dvGHA" unicode="&#x918;" horiz-adv-x="1476" 
d="M588 270q213 0 383.5 133t208.5 336l131 744h-903l-39 -209q-27 -159 46.5 -238.5t262.5 -79.5h110l-6 -32h-110q-206 0 -322 -87t-141 -225q-20 -113 25 -191.5t136 -114.5t218 -36zM55 1483l6 33h1620l-6 -33h-329l-263 -1483h-34l100 565q-80 -149 -232 -238t-335 -89
q-212 0 -325.5 97t-82.5 277q25 141 133 228t246 98v4q-121 13 -183.5 94t-35.5 238l39 209h-318z" />
    <glyph glyph-name="dvNGA" unicode="&#x919;" horiz-adv-x="1275" 
d="M1174 801q-23 0 -34.5 13.5t-6.5 35.5q3 22 19.5 35.5t39.5 13.5q22 0 33 -13.5t8 -35.5q-5 -22 -21 -35.5t-38 -13.5zM57 1483l6 33h1418l-6 -33h-400l-59 -332l-6 -33h-346q-348 0 -392 -239q-11 -64 6 -111t56.5 -73.5t90 -39t112.5 -12.5h92q63 0 119.5 -10.5
t107 -36t84 -63t47 -96t0.5 -130.5q-26 -142 -146.5 -233.5t-316.5 -91.5q-115 0 -202 31.5t-136 86t-67.5 125.5t-3.5 152h35q-13 -76 2 -140.5t59 -115t125.5 -79t193.5 -28.5q176 0 287.5 83.5t134.5 209.5q12 70 -1 124t-44 87.5t-79 54.5t-98.5 29t-108.5 8h-93
q-143 0 -228 69.5t-62 201.5q11 63 41.5 111.5t70.5 77.5t92.5 48t102 26t104.5 7h332l59 332h-983z" />
    <glyph glyph-name="dvCA" unicode="&#x91a;" horiz-adv-x="1470" 
d="M55 1483l6 33h1614l-6 -33h-330l-262 -1483h-35l93 520q-69 -125 -199 -204.5t-279 -79.5q-90 0 -165.5 29.5t-127.5 83.5t-74 135.5t-5 179.5q26 149 123 258t243 153h-495l6 33h731l-6 -33h-60q-199 0 -337.5 -117t-170.5 -294q-32 -183 69 -289.5t274 -106.5
q180 0 323 120.5t176 283.5l144 811h-1250z" />
    <glyph glyph-name="dvCHA" unicode="&#x91b;" horiz-adv-x="1654" 
d="M51 1483l4 33h1805l-5 -33h-503l-60 -334q64 -3 117 -29t92 -77.5t51 -129.5t-4 -184q-36 -204 -162 -355.5t-309 -228.5t-397 -77q-180 0 -313.5 50.5t-201 153t-42.5 242.5q28 158 141 250.5t260 105.5v4q-57 6 -101 27t-77.5 61t-42.5 100t4 144l49 277h-305zM684 100
q200 0 375.5 75.5t297 219.5t154.5 332q16 102 3.5 175.5t-50.5 121t-88 70t-108 22.5q-51 0 -102.5 -15.5t-102 -48.5t-88.5 -95t-53 -144q-17 -93 2 -219h-35q-21 117 -2 219q15 87 54 153t91.5 104t108.5 57.5t116 21.5l60 334h-926l-49 -277q-28 -159 44.5 -238
t262.5 -79h49l-4 -33h-49q-108 0 -196 -27t-147 -74.5t-95 -108.5t-49 -132q-24 -133 42 -228.5t191.5 -140.5t292.5 -45z" />
    <glyph glyph-name="dvJA" unicode="&#x91c;" horiz-adv-x="1685" 
d="M55 1483l6 33h1829l-6 -33h-330l-262 -1483h-35l179 1010h-527l-55 -314q-30 -167 -138.5 -269t-269.5 -101q-145 1 -216.5 105.5t-43.5 264.5l62 346h35l-62 -348q-27 -149 36.5 -242.5t197.5 -93.5q139 0 238 93t126 243l62 348h561l78 441h-1465z" />
    <glyph glyph-name="dvJHA" unicode="&#x91d;" horiz-adv-x="1716" 
d="M1548 1483h-463l-59 -332l-6 -33h-346q-50 0 -95.5 -5t-97.5 -21t-91.5 -41t-70 -69.5t-40.5 -102.5q-12 -64 4.5 -111t56.5 -73.5t91.5 -39t115.5 -12.5h854zM1286 0l109 612l-582 2q101 -28 153.5 -106.5t30.5 -200.5q-25 -133 -131.5 -220t-287.5 -87q-80 0 -147 19.5
t-107.5 47.5t-70 63t-42 62t-16.5 48l-70 -385h-35l90 499h31q-1 -64 20.5 -120.5t64.5 -102t117.5 -72t172.5 -26.5q164 0 260.5 78.5t116.5 195.5q26 142 -59.5 222.5t-270.5 80.5h-92q-97 0 -168 27.5t-108 89.5t-21 152q13 78 56 133.5t104.5 84.5t125 41.5t134.5 12.5
h327l60 332h-981l6 33h1845l-6 -33h-332l-262 -1483h-35z" />
    <glyph glyph-name="dvNYA" unicode="&#x91e;" horiz-adv-x="1611" 
d="M55 1483l6 33h1756l-7 -33h-331l-260 -1483h-35l125 711h-267q-18 -90 -60 -171t-106 -147.5t-157.5 -105.5t-202.5 -39q-78 0 -142 20t-105 51.5t-70 74t-42.5 85t-17.5 86.5h35q5 -52 25 -99t58.5 -89.5t105.5 -68t155 -25.5q199 0 329 127t163 315q10 69 7.5 132.5
t-27.5 119t-65 96.5t-105 64.5t-146 23.5q-89 0 -166.5 -26t-131.5 -69.5t-90 -91t-57 -97.5h-34q18 46 45.5 89.5t70.5 85.5t95 73t123 50t151 19q88 0 158 -25.5t112.5 -68.5t70 -101t31 -123t-4.5 -133h268l129 740h-1389z" />
    <glyph glyph-name="dvTTA" unicode="&#x91f;" horiz-adv-x="1329" 
d="M45 1483l6 33h1483l-6 -33h-508l-62 -342h-139q-118 0 -223 -31t-191.5 -91.5t-146.5 -157.5t-82 -222q-38 -208 81.5 -342.5t334.5 -134.5q216 0 370 137t191 356h35q-40 -235 -203 -380.5t-399 -145.5q-148 0 -259.5 65t-162 183t-23.5 264q24 135 87.5 238.5t156 167
t203.5 95.5t237 32h107l53 309h-940z" />
    <glyph glyph-name="dvTTHA" unicode="&#x920;" horiz-adv-x="1382" 
d="M580 162q133 0 254.5 58.5t206 166t108.5 242.5q37 209 -76.5 346t-324.5 137q-205 0 -369.5 -131t-200.5 -336q-24 -136 20.5 -247t145 -173.5t236.5 -62.5zM573 129q-145 0 -252.5 66.5t-155.5 185t-22 264.5q38 217 204 355.5t388 144.5l60 338h-750l6 33h1536l-6 -33
h-752l-59 -338q215 -6 333.5 -152.5t80.5 -363.5q-26 -146 -114.5 -260.5t-218.5 -177t-278 -62.5z" />
    <glyph glyph-name="dvDDA" unicode="&#x921;" horiz-adv-x="1193" 
d="M57 1483l6 33h1336l-6 -33h-334l-66 -365h-329q-348 0 -392 -239q-11 -64 6 -111t56.5 -73.5t90 -39t112.5 -12.5h92q63 0 119.5 -10.5t107 -36t84 -63t47 -96t0.5 -130.5q-26 -142 -146.5 -233.5t-316.5 -91.5q-115 0 -202 31.5t-136 86t-67.5 125.5t-3.5 152h35
q-13 -76 2 -140.5t59 -115t125.5 -79t193.5 -28.5q176 0 287.5 83.5t134.5 209.5q12 70 -1 124t-44 87.5t-79 54.5t-98.5 29t-108.5 8h-93q-143 0 -228 69.5t-62 201.5q11 63 41.5 111.5t70.5 77.5t92.5 48t102 26t104.5 7h316l59 332h-967z" />
    <glyph glyph-name="dvDDHA" unicode="&#x922;" horiz-adv-x="1282" 
d="M51 1483l6 33h1430l-6 -33h-418l-59 -342h-156q-163 0 -300.5 -57.5t-238.5 -181t-131 -298.5q-27 -153 23 -273t162.5 -185.5t265.5 -65.5q181 0 314 99.5t161 252.5q23 128 -43.5 211.5t-192.5 83.5q-113 0 -199.5 -69t-103.5 -183q-4 -28 -4 -45h-35q0 19 4 47
q23 130 118.5 206.5t225.5 76.5q136 0 213 -93.5t52 -234.5q-29 -168 -173.5 -276.5t-342.5 -108.5q-247 0 -384.5 155.5t-95.5 399.5q26 144 93 255.5t163.5 179.5t211 102.5t243.5 34.5h121l53 309h-977z" />
    <glyph glyph-name="dvNNA" unicode="&#x923;" horiz-adv-x="1679" 
d="M489 479q139 0 235.5 93t123.5 243l117 668h-598l-117 -668q-27 -150 38 -243t201 -93zM55 1483l6 33h1823l-6 -33h-332l-260 -1483h-35l260 1483h-512l-116 -666q-30 -167 -134 -269t-257 -102q-156 0 -232 103.5t-45 267.5l117 666h-277z" />
    <glyph glyph-name="dvTA" unicode="&#x924;" horiz-adv-x="1394" 
d="M55 1483l6 33h1538l-6 -33h-329l-263 -1483h-34l176 997h-340q-259 0 -426.5 -119.5t-210.5 -359.5q-40 -230 68 -355.5t346 -125.5h49l-6 -33h-50q-247 0 -365.5 135.5t-76.5 378.5q46 258 223.5 385t452.5 127h342l80 453h-1174z" />
    <glyph glyph-name="dvTHA" unicode="&#x925;" horiz-adv-x="1515" 
d="M1087 0l97 541q-24 -54 -70 -106.5t-111 -98.5t-153.5 -74.5t-183.5 -28.5q-251 0 -378 148t-83 389q3 19 16 72h221q68 0 129 8t128.5 31t119 60.5t91.5 101t55 147.5q24 134 -43 222.5t-209 88.5q-177 0 -280 -119t-103 -307h-35q0 202 115 330.5t303 128.5
q156 0 234.5 -99t51.5 -245q-15 -87 -55.5 -155t-94 -109.5t-123.5 -68.5t-140 -37.5t-148 -10.5h-190q-57 -250 58.5 -396.5t363.5 -146.5q126 0 241.5 55.5t196 156t102.5 224.5l144 814h366l-4 -33h-332l-262 -1483h-35z" />
    <glyph glyph-name="dvDA" unicode="&#x926;" horiz-adv-x="1243" 
d="M55 1483l6 33h1387l-6 -33h-348l-56 -312h-247q-141 0 -261 -45.5t-210 -146.5t-115 -246q-34 -195 64 -315.5t290 -120.5q51 0 105 12t110.5 39.5t103 68t82 103t48.5 137.5h30l-114 -657h-35l86 494q-52 -100 -167.5 -165t-252.5 -65q-205 0 -313.5 131.5t-71.5 337.5
q21 121 81 213.5t146 147.5t186 82.5t212 27.5h213l51 279h-1004z" />
    <glyph glyph-name="dvDHA" unicode="&#x927;" horiz-adv-x="1419" 
d="M545 238q-116 0 -205.5 40t-135.5 121t-26 189q25 131 115.5 207t200.5 86v4q-112 21 -175.5 105.5t-37.5 226.5q24 137 126.5 227t247.5 90q156 0 224 -99t24 -261h-35q42 152 -18 239.5t-201 87.5q-126 0 -219.5 -82.5t-114.5 -204.5q-26 -142 52 -227.5t254 -85.5h110
l-6 -33h-111q-174 0 -276.5 -78.5t-124.5 -201.5q-25 -150 73 -234t265 -84q133 0 255 59.5t207 167t109 240.5l133 762l2 17h367l-4 -33h-332l-262 -1483h-35l99 563q-79 -149 -225 -237t-320 -88z" />
    <glyph glyph-name="dvNA" unicode="&#x928;" horiz-adv-x="1556" 
d="M461 360q144 0 254 94.5t137 233.5q28 142 -51 234t-226 92q-151 0 -262 -91.5t-137 -238.5q-26 -143 53 -233.5t232 -90.5zM55 1483l6 33h1700l-6 -33h-330l-262 -1483h-35l181 1016h-588q91 -31 139.5 -119t26.5 -209q-28 -158 -148.5 -259t-283.5 -101
q-165 0 -253.5 100.5t-60.5 255.5q28 164 150.5 263.5t300.5 99.5h721l78 436h-1336z" />
    <glyph glyph-name="dvPA" unicode="&#x92a;" horiz-adv-x="1300" 
d="M584 506q174 0 293.5 108t150.5 267l105 602h-766l-93 -522q-37 -216 42 -335.5t268 -119.5zM55 1483l6 33h1444l-6 -33h-332l-260 -1483h-35l127 719q-61 -115 -169 -180.5t-248 -65.5q-202 0 -292 129.5t-50 358.5l92 522h-277z" />
    <glyph glyph-name="dvPHA" unicode="&#x92b;" horiz-adv-x="2019" 
d="M563 506q167 0 282 112t144 279l103 586h-725l-93 -522q-38 -219 32.5 -337t256.5 -118zM55 1483l6 33h2163l-6 -33h-1092l-102 -586q63 131 180 215t281 84q185 0 289 -126t67 -335q-39 -220 -183.5 -347.5t-332.5 -127.5q-61 0 -115 12l7 33q49 -12 114 -12
q173 0 306 118t169 324q34 195 -62 311.5t-265 116.5q-84 0 -157.5 -25.5t-127 -68t-95.5 -99t-67 -115.5t-37 -120l-129 -735h-35l127 723q-60 -117 -164.5 -183.5t-238.5 -66.5q-198 0 -276.5 127.5t-38.5 360.5l92 522h-277z" />
    <glyph glyph-name="dvBA" unicode="&#x92c;" horiz-adv-x="1413" 
d="M985 0l98 549q-67 -131 -196 -217t-303 -86q-100 0 -184.5 33t-143 93t-83 151t-5.5 200q39 223 200 357t369 134q176 0 279 -88.5t127 -222.5l102 580h-1190l6 33h1557l-6 -33h-332l-260 -1483h-35zM737 1182q-191 0 -340 -121l549 -639q138 133 166 305q9 64 6 128
t-31 123t-71.5 104.5t-115.5 72.5t-163 27zM586 279q196 0 338 122l-549 639q-135 -119 -172 -317q-18 -103 4 -188t75.5 -140.5t131.5 -85.5t172 -30z" />
    <glyph glyph-name="dvBHA" unicode="&#x92d;" horiz-adv-x="1519" 
d="M430 311q127 0 216 93t118 260l39 215h-250q-135 0 -233 -78t-121 -207q-23 -126 42.5 -204.5t188.5 -78.5zM430 279q-140 0 -215.5 88t-50.5 227q26 144 134 230.5t259 86.5h250l41 228q30 171 -17 265.5t-178 94.5q-113 0 -197 -76.5t-108 -210.5q-6 -44 -6 -90h-35
q0 46 6 90q26 149 119 235.5t221 86.5q146 0 204.5 -103t25.5 -290l-41 -230h409l107 605h366l-4 -33h-331l-263 -1483h-34l153 879h-409l-37 -213q-33 -192 -129 -289.5t-240 -97.5z" />
    <glyph glyph-name="dvMA" unicode="&#x92e;" horiz-adv-x="1505" 
d="M350 311q127 0 215 92.5t119 260.5l37 215h-250q-135 0 -232 -77.5t-120 -207.5q-23 -126 42.5 -204.5t188.5 -78.5zM1237 911l100 572h-475l-100 -572h475zM55 1483l6 33h1649l-6 -33h-332l-260 -1483h-35l154 879h-475l-37 -213q-33 -192 -129 -289.5t-240 -97.5
q-140 0 -215.5 88t-50.5 227q25 144 133 230.5t260 86.5h250l100 572h-772z" />
    <glyph glyph-name="dvYA" unicode="&#x92f;" horiz-adv-x="1474" 
d="M635 315q192 0 347 117.5t194 306.5l131 744h-514l-31 -183q-17 -93 -52.5 -163.5t-83 -115t-112 -72.5t-132.5 -39t-151 -11h-6q-2 -9 -4.5 -22.5t-3.5 -16.5q-47 -254 67 -399.5t351 -145.5zM55 1483l6 33h1618l-6 -33h-332l-260 -1483h-34l102 580q-29 -56 -76 -107
t-111.5 -94.5t-151.5 -69.5t-183 -26q-248 0 -369 157.5t-74 419.5q6 36 17 72h37q72 0 131.5 8.5t120.5 33t106 64.5t80 106.5t51 155.5l31 183h-703z" />
    <glyph glyph-name="dvRA" unicode="&#x930;" horiz-adv-x="1105" 
d="M57 1483l6 33h1248l-6 -33h-308l-47 -273q-40 -225 -175.5 -334.5t-342.5 -109.5h-190l-60 -348q-34 -181 38.5 -292.5t238.5 -111.5q151 0 251 100t130 271l4 23h35q-5 -20 -5 -23q-31 -187 -140 -295t-275 -108q-183 0 -267 120.5t-45 317.5l66 379h225
q191 0 315.5 101.5t161.5 309.5l48 273h-906z" />
    <glyph glyph-name="dvRxA" unicode="&#x931;" horiz-adv-x="1105" 
d="M57 1483l6 33h1248l-6 -33h-308l-47 -273q-40 -225 -175.5 -334.5t-342.5 -109.5h-190l-60 -348q-34 -181 38.5 -292.5t238.5 -111.5q151 0 251 100t130 271l4 23h35q-5 -20 -5 -23q-31 -187 -140 -295t-275 -108q-183 0 -267 120.5t-45 317.5l66 379h225
q191 0 315.5 101.5t161.5 309.5l48 273h-906zM96 -229q-22 0 -34 13.5t-9 35.5t20 35.5t40 13.5q20 0 32 -13.5t9 -35.5t-19.5 -35.5t-38.5 -13.5z" />
    <glyph glyph-name="dvLA" unicode="&#x932;" horiz-adv-x="1814" 
d="M1102 213q-26 0 -76 4l6 35q46 -4 64 -4q204 0 334 125t165 325q20 117 0.5 209t-87.5 149.5t-177 57.5q-171 0 -285.5 -131t-154.5 -362l-2 -17h-35l2 17q42 228 -22.5 360.5t-231.5 132.5q-172 0 -281 -115t-141 -301q-23 -130 4 -229.5t113 -160t223 -60.5q18 0 64 4
l-6 -35q-40 -4 -60 -4q-146 0 -240.5 65t-126.5 173.5t-6 246.5q35 202 154.5 325.5t304.5 123.5q69 0 123.5 -22t87.5 -57t54 -82.5t28.5 -95t5.5 -97.5h4q20 64 52 121t81 110t120.5 86t156.5 37l59 336h-1339l6 33h1976l-6 -33h-602l-59 -336q113 -5 184.5 -67.5
t93.5 -161t0 -220.5q-18 -104 -60.5 -191t-107.5 -153t-157.5 -103.5t-202.5 -37.5z" />
    <glyph glyph-name="dvLLA" unicode="&#x933;" horiz-adv-x="2086" 
d="M520 305q183 0 317 116t167 298q34 190 -58 309t-278 119q-181 0 -319 -118t-171 -310q-32 -183 65 -298.5t277 -115.5zM1380 305q180 0 319 115.5t171 298.5q33 193 -62 310.5t-276 117.5q-186 0 -320 -119t-168 -309q-33 -181 60 -297.5t276 -116.5zM1378 272
q-172 0 -271 96.5t-101 233.5h-5q-50 -138 -181 -234t-302 -96q-196 0 -302.5 126.5t-72.5 320.5q36 207 184.5 334t342.5 127q75 0 137.5 -19t104.5 -50t72 -74t44.5 -88.5t18.5 -94.5h4q26 63 67.5 118.5t100 103.5t139 76t172.5 28l53 303h-1550l6 33h2253l-6 -33h-668
l-53 -303q182 -11 278.5 -137t61.5 -324q-34 -194 -182.5 -320.5t-344.5 -126.5z" />
    <glyph glyph-name="dvVA" unicode="&#x935;" horiz-adv-x="1394" 
d="M569 289q93 0 174.5 27.5t139.5 71.5t103.5 102t71 117t36.5 118q12 52 8 105t-15.5 102.5t-42 93t-72.5 76t-105.5 51t-141.5 18.5q-187 0 -335.5 -118.5t-184.5 -317.5q-18 -104 1.5 -189.5t69.5 -141t125 -85.5t168 -30zM1593 1483h-331l-261 -1483h-34l96 549
q-66 -128 -192.5 -210.5t-301.5 -82.5q-101 0 -183 32.5t-137 92.5t-76.5 151.5t-2.5 202.5q25 142 107.5 250t198.5 163.5t247 55.5q181 0 281 -84.5t120 -218.5l103 582h-1172l6 33h1538z" />
    <glyph glyph-name="dvSHA" unicode="&#x936;" horiz-adv-x="1591" 
d="M483 -18q-191 0 -272 119t-45 319l57 328h314q123 0 226.5 43t176.5 129.5t94 205.5q30 173 -52 274t-237 101q-189 0 -306 -135t-117 -342h-35q0 222 128 366t330 144q173 0 265 -115.5t57 -300.5q-36 -194 -182.5 -298.5t-354.5 -104.5h-278l-51 -297
q-33 -183 37.5 -293.5t242.5 -110.5q155 0 264.5 107t137.5 287h35q-29 -188 -142 -307t-293 -119zM1163 0l267 1516h366l-6 -33h-332l-260 -1483h-35z" />
    <glyph glyph-name="dvSSA" unicode="&#x937;" horiz-adv-x="1300" 
d="M594 506q132 0 235.5 70.5t157.5 187.5l-627 678l-86 -481q-38 -212 49.5 -333.5t270.5 -121.5zM1030 897l103 586h-764l632 -688q22 60 29 102zM55 1483l6 33h1444l-6 -33h-332l-260 -1483h-35l127 717q-62 -113 -168.5 -178.5t-244.5 -65.5q-192 0 -289.5 131.5
t-56.5 356.5l92 522h-277z" />
    <glyph glyph-name="dvSA" unicode="&#x938;" horiz-adv-x="1660" 
d="M952 1251q-33 -175 -128 -277.5t-214 -135.5h770l113 645h-498zM55 1483l6 33h1805l-6 -33h-332l-260 -1483h-35l141 807h-1126l-68 -389q-32 -184 40 -294t241 -110q156 0 255.5 110t125.5 284h35q-13 -90 -46 -166.5t-84 -135t-125 -91.5t-163 -33q-181 0 -264.5 120
t-49.5 318l74 420h225q185 0 313 110.5t163 300.5l43 232h-908z" />
    <glyph glyph-name="dvHA" unicode="&#x939;" horiz-adv-x="1220" 
d="M958 98q-22 -52 -61.5 -101.5t-97 -95t-139.5 -73t-175 -27.5q-88 0 -158.5 23.5t-115 64.5t-73.5 96.5t-33.5 119t4.5 131.5q24 136 112 245.5t223 159.5q-33 11 -63.5 29.5t-60 49t-42 78.5t-2.5 105q12 68 47 118t87 79t113 43t132 14h359l57 326h-997l6 33h1345
l-6 -33h-313l-57 -326l-7 -33h-393q-83 0 -151 -19.5t-121.5 -71.5t-67.5 -132q-18 -97 37 -159t156 -85q77 15 131 15q94 0 167.5 -27.5t116 -73t65 -95t26.5 -101.5h-35q-4 46 -24.5 90t-59.5 84.5t-107 65t-155 24.5q-98 0 -184 -34t-146 -91t-100 -128.5t-54 -149.5
q-10 -65 -6.5 -123.5t29.5 -109t67 -88t105.5 -58.5t146.5 -21q159 0 275 79.5t164 182.5h34z" />
    <glyph glyph-name="dvNukta" unicode="&#x93c;" horiz-adv-x="0" 
d="M-883 -92q-22 0 -34 13.5t-9 35.5t20 35.5t40 13.5q20 0 32 -13.5t9 -35.5t-19.5 -35.5t-38.5 -13.5z" />
    <glyph glyph-name="dvAvagraha" unicode="&#x93d;" horiz-adv-x="1142" 
d="M82 154l6 32h494q100 0 162 50.5t73 125.5q10 57 -11.5 116.5t-64 112.5t-95.5 107.5t-106 110.5t-95 112t-63 121t-9 129q37 205 311 205h373l-6 -33h-365q-48 0 -90 -8t-82.5 -26t-68.5 -54t-37 -86q-10 -59 11.5 -120.5t64 -115.5t95.5 -109t105.5 -110.5t94.5 -110.5
t63 -118t10 -125q-12 -85 -80 -145.5t-197 -60.5h-493z" />
    <glyph glyph-name="dvmAA" unicode="&#x93e;" 
d="M127 0l260 1483h-332l6 33h699l-6 -33h-332l-260 -1483h-35z" />
    <glyph glyph-name="dvmI" unicode="&#x93f;" 
d="M422 1483l-262 -1483h-35l262 1483h-332l6 33h330l2 10q69 450 807 450q54 0 106 -3.5t108 -11.5t105.5 -20.5t99 -31.5t87 -44t70.5 -57.5t50.5 -73t25 -90t-4.5 -108.5l-6 -35h-35l6 35q14 80 -5.5 145.5t-67 109t-109 74.5t-139.5 47.5t-150 24t-147 7.5
q-69 0 -129.5 -3.5t-136 -14t-137.5 -28.5t-126 -50t-110.5 -75t-80.5 -106t-46 -141l-2 -10h334l-6 -33h-332z" />
    <glyph glyph-name="dvmII" unicode="&#x940;" horiz-adv-x="552" 
d="M-166 1503l21 107q31 163 119.5 264.5t240.5 101.5q79 0 132.5 -29t77 -78.5t29.5 -116.5t-10 -142l-18 -94h332l-4 -33h-332l-262 -1483h-35l262 1483h-332l4 33h332l19 94q15 66 10 126.5t-24.5 106.5t-67.5 73.5t-119 27.5t-127.5 -26.5t-94 -75t-61 -105.5
t-37.5 -127l-20 -107h-35z" />
    <glyph glyph-name="dvmU" unicode="&#x941;" horiz-adv-x="0" 
d="M-608 -541q-89 0 -160.5 23.5t-122 71.5t-67.5 121t4 171h32q-19 -92 -4.5 -159t61 -110.5t113 -64t150.5 -20.5q151 0 254.5 72t126.5 203q16 94 -31.5 163.5t-146.5 69.5h-29l6 33h29q76 0 128.5 -40t72 -101t6.5 -130q-26 -144 -137.5 -223.5t-284.5 -79.5z" />
    <glyph glyph-name="dvmUU" unicode="&#x942;" horiz-adv-x="0" 
d="M-535 -537q-125 0 -201.5 77t-54.5 200q22 134 126 213.5t259 79.5q98 0 177.5 -34.5t133.5 -101t72 -165t-8 -226.5q-1 -4 -3 -13t-3 -13h-33l9 43q22 113 5 201.5t-64.5 150t-120.5 93.5t-162 32q-143 0 -238.5 -72.5t-114.5 -189.5q-20 -106 43.5 -173t177.5 -67
q35 0 72 6l-6 -34q-35 -7 -66 -7z" />
    <glyph glyph-name="dvmvR" unicode="&#x943;" horiz-adv-x="0" 
d="M-520 -588q-63 0 -119 22.5t-97 63t-59.5 103t-5.5 135.5q22 132 126.5 214.5t262.5 82.5h23l-4 -33h-25q-142 0 -235.5 -73t-112.5 -191q-22 -133 55 -212t197 -79q71 0 137 20l-6 -32q-61 -21 -137 -21z" />
    <glyph glyph-name="dvmvRR" unicode="&#x944;" horiz-adv-x="0" 
d="M-618 -852q-122 0 -193.5 62.5t-50.5 175.5q16 84 74 135.5t133 66.5v4q-75 19 -110.5 72t-20.5 137q22 118 108.5 175t200.5 57h88l-4 -33h-90q-100 0 -175 -47.5t-94 -151.5q-18 -99 42 -146.5t171 -47.5h76l-4 -33h-90q-63 0 -117 -16.5t-97.5 -60.5t-55.5 -111
q-18 -98 44 -151.5t171 -53.5q105 0 198 33l-6 -33q-89 -33 -198 -33z" />
    <glyph glyph-name="dvmEcandra" unicode="&#x945;" horiz-adv-x="0" 
d="M-106 1688q-88 0 -154.5 27.5t-101.5 72t-48.5 95.5t-3.5 102h33q-8 -47 3 -92t40.5 -84.5t88 -64t138.5 -24.5q153 0 250.5 82t114.5 183h33q-10 -52 -38.5 -102t-75 -95t-119.5 -72.5t-160 -27.5z" />
    <glyph glyph-name="dvmE" unicode="&#x947;" horiz-adv-x="0" 
d="M-162 1509q-36 78 -66 137t-59.5 104.5t-53.5 76.5t-54 53t-54 34t-59.5 18.5t-64.5 8t-76 1.5h-66l6 32h66q44 0 71.5 -1.5t62 -6t58 -14t52 -25.5t51.5 -40.5t50.5 -58.5t53.5 -80.5t56 -105t63 -133.5h-37z" />
    <glyph glyph-name="dvmAI" unicode="&#x948;" horiz-adv-x="0" 
d="M-127 1509h-33q-54 59 -97.5 100t-86.5 69t-76.5 43.5t-80 23.5t-83.5 10t-100 2h-66l7 33h65q75 0 116 -2.5t94 -14t93.5 -35.5t90.5 -66t108 -107q-31 86 -58 151.5t-54 116t-49.5 85t-50.5 58.5t-51 37t-57.5 20t-63 9t-73.5 2h-65l4 33h65q39 0 64.5 -1t57 -5.5
t53 -13t48 -23.5t46 -36.5t43.5 -53t44.5 -72.5t45 -94.5t49 -120t51.5 -148.5z" />
    <glyph glyph-name="dvmOcandra" unicode="&#x949;" 
d="M451 1688q-88 0 -154.5 27.5t-101.5 72t-48.5 95.5t-3.5 102h33q-8 -47 3 -92t40.5 -84.5t88 -64t138.5 -24.5q153 0 250.5 82t114.5 183h33q-10 -52 -38.5 -102t-75 -95t-119.5 -72.5t-160 -27.5zM127 0l260 1483h-332l6 33h699l-6 -33h-332l-260 -1483h-35z" />
    <glyph glyph-name="dvmO" unicode="&#x94b;" 
d="M160 0h-35l262 1483h-332l6 33h328q-35 77 -65 135t-59.5 103t-53.5 75.5t-54 51.5t-54 33t-59.5 18.5t-64.5 8t-75 1.5h-66l6 32h66q50 0 80 -1.5t68 -8t63.5 -19t57.5 -35.5t57.5 -56t57 -81t63.5 -111t69 -146h334l-6 -33h-332z" />
    <glyph glyph-name="dvmAU" unicode="&#x94c;" 
d="M113 0h-35l260 1483h-332l6 33h330q-63 69 -115.5 113t-94.5 70.5t-94.5 39t-95.5 15.5t-118 3h-66l6 33h66q75 0 116 -2.5t94 -14t93.5 -35.5t90.5 -66t108 -107q-31 86 -58 151.5t-54 116t-49.5 85t-50.5 58.5t-51 37t-57.5 20t-63 9t-73.5 2h-65l4 33h65q66 0 104 -4
t85.5 -21.5t79 -52.5t71.5 -98t77.5 -156.5t82.5 -228.5h332l-6 -33h-332z" />
    <glyph glyph-name="dvVirama" unicode="&#x94d;" horiz-adv-x="0" 
d="M-274 -500l-170 365h36l172 -365h-38z" />
    <glyph glyph-name="dvOm" unicode="&#x950;" horiz-adv-x="2134" 
d="M442 29q-185 0 -287.5 111.5t-70.5 289.5h35q-29 -163 64 -266t263 -103q167 0 288.5 104.5t152.5 272.5q6 50 5 100t-23.5 96.5t-57.5 82t-96.5 57t-141.5 21.5h-69l6 32h70q88 0 161.5 29t122 77t78.5 103.5t41 114.5q28 162 -58.5 256t-238.5 94q-154 0 -271.5 -86.5
t-144.5 -232.5h-34q19 109 86 189.5t163 121.5t207 41q169 0 263 -103t65 -272q-24 -135 -111 -228.5t-229 -117.5v-2q63 -8 117 -41h129q265 0 313 274q14 81 43.5 145.5t77.5 116t121 79.5t166 28q99 0 163 -37.5t91 -105t30.5 -161t-18.5 -204.5l-55 -307
q-23 -133 -64 -228.5t-109.5 -165t-170.5 -103t-240 -33.5q-76 0 -193 20l6 33q126 -21 193 -21q129 0 224.5 33.5t158.5 100t101 155t59 209.5l55 307q21 108 18.5 195.5t-27 149.5t-82 96t-147.5 34q-83 0 -148.5 -26t-108.5 -73.5t-69.5 -106t-39.5 -130.5
q-55 -307 -354 -307h-78q55 -52 75 -130t5 -169q-34 -185 -165 -297t-315 -112zM1323 1559q-63 0 -115.5 13t-88 35t-62.5 51t-38.5 62t-16.5 67.5t4 67.5h32q-9 -47 2.5 -92t42.5 -84.5t93 -63.5t145 -24q82 0 147.5 24t106.5 64t65 84t33 92h33q-9 -53 -35 -102t-70 -94.5
t-116 -72.5t-162 -27zM1360 1874q-22 0 -34 13.5t-9 35.5t19.5 35.5t39.5 13.5q20 0 32 -13.5t9 -35.5t-19 -35.5t-38 -13.5z" />
    <glyph glyph-name="dvKxA" unicode="&#x958;" horiz-adv-x="2091" 
d="M905 0l96 545q-64 -124 -183 -204.5t-279 -80.5q-95 0 -171.5 32t-127.5 92.5t-70.5 149t0.5 201.5q25 140 103.5 246t188.5 160.5t234 54.5q164 0 256 -81.5t113 -207.5l100 576h-1110l6 33h2235l-6 -33h-1092l-102 -580q65 129 180 211t276 82q89 0 163.5 -32
t125 -90.5t71 -146t1.5 -192.5q-39 -221 -182 -348t-334 -127q-61 0 -115 12l6 33q50 -12 115 -12q171 0 305 118.5t170 323.5q34 195 -62.5 311.5t-265.5 116.5q-84 0 -157 -25.5t-126 -67.5t-95 -98t-67 -114t-38 -119l-129 -739h-33zM541 293q85 0 160.5 26.5t129 68.5
t95.5 97t66 110t36 110l6 32q10 47 6.5 97.5t-14 97.5t-38.5 89t-66 73.5t-97 50t-131 18.5q-112 0 -214 -50t-177 -149t-98 -229q-36 -206 60.5 -324t275.5 -118zM469 -43q-22 0 -34 13.5t-9 35.5t19.5 35.5t39.5 13.5q20 0 32 -13.5t9 -35.5t-19 -35.5t-38 -13.5z" />
    <glyph glyph-name="dvKHxA" unicode="&#x959;" horiz-adv-x="1861" 
d="M1434 0l102 582q-58 -111 -164.5 -183.5t-249.5 -72.5q-46 0 -94 10q-75 -146 -206.5 -241t-299.5 -95q-204 0 -307 118.5t-68 319.5l66 369h90q44 0 84 7.5t86.5 30t83 59t67.5 100.5t46 149l57 330h-672l6 33h2005l-6 -33h-331l-261 -1483h-34zM444 -303
q-22 0 -34 13.5t-9 35.5t20 35.5t40 13.5q20 0 32 -13.5t9 -35.5t-19.5 -35.5t-38.5 -13.5zM1128 358q94 0 174 35.5t132.5 93t85 122t43.5 130.5q10 44 7 89.5t-13 88.5t-36 80.5t-61 65.5t-89 44.5t-120 16.5q-158 0 -281 -101t-153 -273q-31 -182 58.5 -287t252.5 -105z
M530 33q149 0 275.5 91.5t189.5 221.5q-119 38 -178.5 144.5t-34.5 259.5q32 186 165 296.5t308 110.5q150 0 233.5 -71.5t102.5 -182.5l103 580h-932l-57 -330q-20 -113 -62.5 -190.5t-102 -117t-120.5 -55.5t-135 -16h-43l-60 -336q-32 -185 62 -295t286 -110z" />
    <glyph glyph-name="dvGxA" unicode="&#x95a;" horiz-adv-x="1398" 
d="M971 0l260 1483h-459l-113 -635q-22 -126 -98.5 -207.5t-208.5 -81.5q-88 0 -142.5 42.5t-71 105.5t-3.5 137l12 61h35l-12 -63q-5 -36 -5.5 -71t12 -67.5t32.5 -57t57 -39.5t86 -15q64 0 114 22t81 60t50 80.5t28 93.5l112 635h-682l6 33h1543l-7 -33h-331l-260 -1483
h-35zM307 242q-22 0 -34 13.5t-9 35.5t20 35.5t40 13.5q20 0 32 -13.5t9 -35.5t-19.5 -35.5t-38.5 -13.5z" />
    <glyph glyph-name="dvJxA" unicode="&#x95b;" horiz-adv-x="1685" 
d="M55 1483l6 33h1829l-6 -33h-330l-262 -1483h-35l179 1010h-527l-55 -314q-30 -167 -138.5 -269t-269.5 -101q-145 1 -216.5 105.5t-43.5 264.5l62 346h35l-62 -348q-27 -149 36.5 -242.5t197.5 -93.5q139 0 238 93t126 243l62 348h561l78 441h-1465zM408 23
q-22 0 -34 13.5t-9 35.5t19.5 35.5t39.5 13.5q20 0 32 -13.5t9 -35.5t-19 -35.5t-38 -13.5z" />
    <glyph glyph-name="dvDDxA" unicode="&#x95c;" horiz-adv-x="1193" 
d="M57 1483l6 33h1336l-6 -33h-334l-66 -365h-329q-348 0 -392 -239q-11 -64 6 -111t56.5 -73.5t90 -39t112.5 -12.5h92q63 0 119.5 -10.5t107 -36t84 -63t47 -96t0.5 -130.5q-26 -142 -146.5 -233.5t-316.5 -91.5q-115 0 -202 31.5t-136 86t-67.5 125.5t-3.5 152h35
q-13 -76 2 -140.5t59 -115t125.5 -79t193.5 -28.5q176 0 287.5 83.5t134.5 209.5q12 70 -1 124t-44 87.5t-79 54.5t-98.5 29t-108.5 8h-93q-143 0 -228 69.5t-62 201.5q11 63 41.5 111.5t70.5 77.5t92.5 48t102 26t104.5 7h316l59 332h-967zM457 -322q-22 0 -34 14t-9 36
t19.5 35.5t39.5 13.5q20 0 32 -13.5t9 -35.5t-19 -36t-38 -14z" />
    <glyph glyph-name="dvDDHxA" unicode="&#x95d;" horiz-adv-x="1282" 
d="M51 1483l6 33h1430l-6 -33h-418l-59 -342h-156q-163 0 -300.5 -57.5t-238.5 -181t-131 -298.5q-27 -153 23 -273t162.5 -185.5t265.5 -65.5q181 0 314 99.5t161 252.5q23 128 -43.5 211.5t-192.5 83.5q-113 0 -199.5 -69t-103.5 -183q-4 -28 -4 -45h-35q0 19 4 47
q23 130 118.5 206.5t225.5 76.5q136 0 213 -93.5t52 -234.5q-29 -168 -173.5 -276.5t-342.5 -108.5q-247 0 -384.5 155.5t-95.5 399.5q26 144 93 255.5t163.5 179.5t211 102.5t243.5 34.5h121l53 309h-977zM512 -256q-22 0 -34 13.5t-9 35.5t19.5 35.5t39.5 13.5
q20 0 32 -13.5t9 -35.5t-19 -35.5t-38 -13.5z" />
    <glyph glyph-name="dvPHxA" unicode="&#x95e;" horiz-adv-x="2019" 
d="M563 506q167 0 282 112t144 279l103 586h-725l-93 -522q-38 -219 32.5 -337t256.5 -118zM55 1483l6 33h2163l-6 -33h-1092l-102 -586q63 131 180 215t281 84q185 0 289 -126t67 -335q-39 -220 -183.5 -347.5t-332.5 -127.5q-61 0 -115 12l7 33q49 -12 114 -12
q173 0 306 118t169 324q34 195 -62 311.5t-265 116.5q-84 0 -157.5 -25.5t-127 -68t-95.5 -99t-67 -115.5t-37 -120l-129 -735h-35l127 723q-60 -117 -164.5 -183.5t-238.5 -66.5q-198 0 -276.5 127.5t-38.5 360.5l92 522h-277zM489 170q-22 0 -34 13.5t-9 35.5t20 35.5
t40 13.5q20 0 32 -13.5t9 -35.5t-19.5 -35.5t-38.5 -13.5z" />
    <glyph glyph-name="dvvRR" unicode="&#x960;" horiz-adv-x="2035" 
d="M926 0l137 774l-856 -774h-37l2 8l897 809q12 162 -81.5 266.5t-264.5 104.5q-198 0 -346.5 -126.5t-186.5 -340.5h-34q40 227 200.5 363.5t368.5 136.5q154 0 248.5 -73.5t120.5 -199.5l94 535h-1133l6 33h2180l-7 -33h-1011l-109 -611h428q215 0 246 193l16 98h2l11 62
h34l-122 -699l-7 -32h-90q-99 0 -174 -47.5t-94 -151.5q-18 -99 42.5 -147t170.5 -48h76l-6 -32h-91q-99 0 -174 -47.5t-94 -151.5q-18 -99 42.5 -147t170.5 -48t199 33l-6 -33q-82 -32 -199 -32q-80 0 -138 22.5t-88 75t-16 129.5q16 88 74 143t131 70l2 4
q-75 19 -110.5 72t-20.5 137q22 118 108.5 174.5t200.5 56.5h56l71 410q-76 -96 -231 -96h-426l-147 -840h-35z" />
    <glyph glyph-name="dvvLL" unicode="&#x961;" horiz-adv-x="1849" 
d="M72 1483l6 33h1976l-6 -33h-616l-60 -336q166 -9 237 -134.5t40 -314.5q-18 -112 -68 -204h-90q-99 0 -174 -47.5t-94 -151.5q-18 -99 42.5 -147t170.5 -48h75l-6 -32h-90q-99 0 -174 -47.5t-94 -151.5q-18 -99 42.5 -147t170.5 -48t199 33l-7 -33q-82 -32 -198 -32
q-124 0 -193.5 57t-48.5 172q16 87 74.5 141.5t130.5 69.5l2 4q-75 19 -110.5 72t-20.5 137q22 118 108.5 174.5t200.5 56.5h64q38 81 53 172q18 85 8 160.5t-39.5 132.5t-89.5 90t-143 33q-174 0 -293 -132.5t-148 -360.5l-2 -17h-35l2 17q61 493 -245 493
q-172 0 -285 -115.5t-145 -300.5q-23 -130 4 -229.5t113 -160t223 -60.5q15 0 65 4l-6 -35q-50 -4 -70 -4q-146 0 -237.5 65.5t-121 173t-5.5 246.5q35 201 156 325t307 124q82 0 142 -32.5t91.5 -86t44.5 -113t10 -122.5h5q21 66 53.5 124t82 112t122.5 86t159 32l60 336
h-1325z" />
    <glyph glyph-name="dvmvL" unicode="&#x962;" horiz-adv-x="0" 
d="M-84 -924q-102 0 -161 55.5t-40 163.5q18 97 90.5 161.5t184.5 68.5q25 63 33 113q23 129 -22 209.5t-161 80.5q-118 0 -194.5 -91.5t-108.5 -252.5l-2 -10h-33l2 10q31 159 -14.5 251.5t-159.5 92.5q-119 0 -196.5 -80t-100.5 -210q-24 -137 36.5 -224.5t201.5 -87.5
q25 0 45 4l-6 -30q-25 -5 -49 -5q-103 0 -168.5 46.5t-87 123t-4.5 173.5q25 144 114 232.5t221 88.5q59 0 102 -23t64.5 -61t30 -80t6.5 -88h4q15 47 39 88t60 79.5t90 61.5t118 23q126 0 177.5 -90t27.5 -231q-14 -84 -47 -144h-12q-98 0 -166 -56t-82 -138
q-12 -65 11 -110t65.5 -64t97.5 -19q51 0 86 14l-6 -32q-39 -13 -86 -13z" />
    <glyph glyph-name="dvmvLL" unicode="&#x963;" horiz-adv-x="0" 
d="M-12 -1090q-64 -22 -140 -22q-88 0 -137 41.5t-35 122.5q11 62 52.5 100.5t93.5 48.5v2q-53 14 -77.5 53.5t-14.5 100.5q14 84 76 126t143 42h41q25 63 33 113q23 129 -22 209.5t-161 80.5q-118 0 -194.5 -91.5t-108.5 -252.5l-2 -10h-33l2 10q31 159 -14.5 251.5
t-159.5 92.5q-119 0 -196.5 -80t-100.5 -210q-24 -137 36.5 -224.5t201.5 -87.5q25 0 45 4l-6 -30q-25 -5 -49 -5q-103 0 -168.5 46.5t-87 123t-4.5 173.5q25 144 114 232.5t221 88.5q59 0 102 -23t64.5 -61t30 -80t6.5 -88h4q15 47 39 88t60 79.5t90 61.5t118 23
q126 0 177.5 -90t27.5 -231q-14 -84 -47 -144h-65q-67 0 -119.5 -33t-63.5 -104t29.5 -105t116.5 -34h51l-4 -31h-55q-45 0 -83 -11.5t-70 -43.5t-40 -82q-11 -66 31 -99.5t117 -33.5q77 0 139 24z" />
    <glyph glyph-name="danda" unicode="&#x964;" horiz-adv-x="464" 
d="M506 1520l-266 -1520h-35l266 1520h35z" />
    <glyph glyph-name="doubledanda" unicode="&#x965;" horiz-adv-x="782" 
d="M506 1520l-266 -1520h-35l266 1520h35zM823 1520l-266 -1520h-35l266 1520h35z" />
    <glyph glyph-name="dvZero" unicode="&#x966;" horiz-adv-x="1204" 
d="M174 725q17 95 35.5 172t46 154.5t60 136.5t77 111t97.5 85.5t122 52.5t150 19t143 -19t103 -52.5t67.5 -85.5t38.5 -111.5t12 -136t-8.5 -154.5t-25.5 -172q-24 -135 -53 -239t-76.5 -201.5t-108.5 -160.5t-150.5 -100.5t-201.5 -37.5q-81 0 -143 19.5t-103.5 53.5
t-67.5 86.5t-37.5 112t-11 137.5t9 156t25.5 174zM1051 725q16 90 24.5 163t9.5 146.5t-9 129.5t-33.5 105.5t-61 81.5t-94 50t-131.5 18q-87 0 -158 -23.5t-124.5 -69.5t-94.5 -105t-72 -141t-52 -165.5t-40 -189.5q-16 -91 -25 -165t-10 -148t8.5 -131t33 -107t61 -82
t94 -50.5t131.5 -18.5q87 0 158 23.5t124.5 70.5t94.5 106.5t72 143t53 167.5t41 191z" />
    <glyph glyph-name="dvOne" unicode="&#x967;" horiz-adv-x="462" 
d="M150 0l247 1405h-217l8 37h258l-256 -1442h-40z" />
    <glyph glyph-name="dvTwo" unicode="&#x968;" horiz-adv-x="1161" 
d="M4 0l4 23q216 125 393.5 252.5t318.5 259t228 264.5t109 256q8 56 8.5 109t-19 99.5t-53.5 81t-95 54.5t-144 20q-102 0 -187 -33.5t-146 -93.5t-103.5 -137.5t-65.5 -171.5h-41q56 221 200.5 347t348.5 126q81 0 147.5 -21.5t118 -66.5t71.5 -125t1 -188
q-20 -112 -95.5 -235.5t-180 -232.5t-234.5 -215.5t-254.5 -188.5t-243.5 -146h879l-8 -37h-957z" />
    <glyph glyph-name="dvThree" unicode="&#x969;" horiz-adv-x="1177" 
d="M223 1057q53 186 196 292.5t349 106.5q192 0 280.5 -99.5t61.5 -256.5q-11 -61 -38 -115t-74.5 -103.5t-126 -82.5t-179.5 -41l-2 -13q169 -20 258 -116.5t60 -261.5q-14 -80 -51.5 -147.5t-98 -120.5t-151 -83t-201.5 -30q-202 0 -313 109.5t-111 307.5h41
q2 -169 102 -272.5t289 -103.5q192 0 309.5 95.5t143.5 244.5q32 178 -93.5 271t-379.5 93h-35l8 39h37q508 0 565 330q25 143 -54.5 231t-252.5 88q-79 0 -153 -20t-141.5 -61.5t-121 -113t-82.5 -167.5h-41z" />
    <glyph glyph-name="dvFour" unicode="&#x96a;" horiz-adv-x="1175" 
d="M756 0l69 389h-813l6 33l994 1020h41l-181 -1016h250l-6 -37h-250l-69 -389h-41zM70 426h761l168 950z" />
    <glyph glyph-name="dvFive" unicode="&#x96b;" horiz-adv-x="1212" 
d="M324 1442h864l-8 -37h-824l-114 -655q74 87 198.5 140.5t259.5 53.5q99 0 174.5 -25t120 -68.5t71.5 -102.5t29 -126t-8 -139q-18 -99 -59.5 -185.5t-109 -157.5t-169.5 -112.5t-227 -41.5q-193 0 -302 108.5t-105 298.5h41q3 -179 103 -272.5t269 -93.5
q217 0 350.5 125.5t168.5 330.5q34 197 -56.5 310.5t-296.5 113.5q-141 0 -265 -60t-204 -165h-37z" />
    <glyph glyph-name="dvSix" unicode="&#x96c;" horiz-adv-x="1257" 
d="M1165 1069h-41q8 167 -71 259.5t-244 92.5q-120 0 -217 -44t-177 -138.5t-135.5 -253t-84.5 -377.5q53 160 202.5 255t333.5 95q226 0 326.5 -133t60.5 -366q-16 -93 -56 -174.5t-105 -150t-165 -108.5t-223 -40q-93 0 -165.5 20.5t-120 55.5t-79 88t-46 111.5t-16.5 133
t4.5 145t21.5 154.5q32 179 83 315t128 239t186.5 156.5t249.5 53.5q184 0 271.5 -104.5t78.5 -284.5zM725 922q-84 0 -168.5 -26t-161.5 -75t-133 -132t-74 -187q-9 -51 -9.5 -99.5t8.5 -96.5t28 -89.5t51.5 -77.5t75 -61.5t102.5 -40t131 -14.5q192 0 329 116.5t173 319.5
q39 225 -55.5 344t-296.5 119z" />
    <glyph glyph-name="dvSeven" unicode="&#x96d;" horiz-adv-x="1028" 
d="M178 1442h926l-8 -37l-822 -1405h-47l830 1405h-887z" />
    <glyph glyph-name="dvEight" unicode="&#x96e;" horiz-adv-x="1245" 
d="M500 741q-155 34 -215 126.5t-37 222.5q30 166 172.5 266t361.5 100t326.5 -100t77.5 -266q-23 -130 -116 -222.5t-259 -126.5q161 -28 238 -127.5t51 -251.5q-34 -192 -188.5 -302.5t-395.5 -110.5t-355.5 110.5t-80.5 302.5q26 152 137.5 251.5t282.5 127.5zM776 1419
q-196 0 -327 -85t-160 -244q-27 -157 72 -243.5t298 -86.5t329 86.5t157 243.5q29 159 -72 244t-297 85zM653 723q-97 0 -183 -20t-159.5 -61.5t-123.5 -113t-66 -166.5q-33 -181 76 -278.5t325 -97.5q215 0 359.5 97.5t177.5 278.5q16 95 -9 166.5t-84 113t-137.5 61.5
t-175.5 20z" />
    <glyph glyph-name="dvNine" unicode="&#x96f;" horiz-adv-x="1257" 
d="M150 373h40q-6 -167 73.5 -260t244.5 -93q120 0 217 44t177 139t135.5 253.5t84.5 377.5q-55 -160 -204 -255.5t-332 -95.5q-226 0 -326.5 133.5t-60.5 366.5q16 93 56 174.5t105 150t165 108.5t223 40q93 0 165.5 -20.5t120 -55.5t79 -88t46 -111.5t16.5 -133t-4.5 -145
t-21.5 -154.5q-32 -179 -83 -315t-128 -239t-186.5 -156.5t-249.5 -53.5q-184 0 -272 104.5t-80 284.5zM592 520q83 0 167.5 25.5t161 75t133 132.5t74.5 187q9 51 9.5 99.5t-8.5 96.5t-28 89.5t-51.5 77.5t-75 61.5t-102.5 40t-131 14.5q-192 0 -328.5 -116.5
t-172.5 -319.5q-39 -225 55.5 -344t296.5 -119z" />
    <glyph glyph-name="dvAbbreviationsign" unicode="&#x970;" horiz-adv-x="1042" 
d="M578 1057q143 0 220 -91t52 -233q-25 -139 -129 -227t-246 -88q-147 0 -227 90t-55 229q25 140 132 230t253 90zM578 1024q-132 0 -230.5 -80.5t-120.5 -206.5t47 -206t201 -80q127 0 222 78.5t118 203.5q22 128 -44 209.5t-193 81.5z" />
    <glyph glyph-name="dvAcandra" unicode="&#x972;" horiz-adv-x="1671" 
d="M621 868q87 0 161 27.5t121.5 72.5t77 97t39.5 106q14 77 -3 140t-58 104.5t-100.5 63.5t-131.5 22q-158 0 -279 -86.5t-145 -232.5h-35q19 108 87.5 189t166 122t211.5 41q166 0 258.5 -97t65.5 -257q-23 -127 -109 -214.5t-229 -111.5v-2q55 -6 104 -31h566l122 695
h365l-4 -33h-332l-262 -1483h-35l139 788l-512 3q60 -50 84 -131t9 -173q-31 -175 -161.5 -282t-314.5 -107q-185 0 -287.5 112t-70.5 290h35q-29 -163 64.5 -266t263.5 -103q169 0 288.5 98.5t147.5 257.5q9 40 6 81.5t-13 80t-35.5 73t-61 60t-89.5 40t-121 14.5h-69l6 32
h70zM1786 1749q-88 0 -154.5 27.5t-101 72t-48 95.5t-3.5 102h32q-8 -47 3 -92t41 -84.5t88.5 -63.5t138.5 -24q153 0 250 81.5t114 182.5h33q-10 -52 -38.5 -102t-75 -95t-119.5 -72.5t-160 -27.5z" />
    <glyph glyph-name="Wgrave" unicode="&#x1e80;" horiz-adv-x="1851" 
d="M360 0l-131 1442h50l120 -1354l660 1354h49l180 -1354l600 1354h49l-643 -1442h-41l-184 1368l-668 -1368h-41zM692 1802l8 49l334 -274l-6 -41z" />
    <glyph glyph-name="wgrave" unicode="&#x1e81;" horiz-adv-x="1644" 
d="M291 0l-152 1106h45l142 -1022l577 1022h35l217 -1022l502 1022h45l-545 -1106h-31l-219 1032l-585 -1032h-31zM588 1466l8 50l334 -275l-6 -41z" />
    <glyph glyph-name="Wacute" unicode="&#x1e82;" horiz-adv-x="1851" 
d="M360 0l-131 1442h50l120 -1354l660 1354h49l180 -1354l600 1354h49l-643 -1442h-41l-184 1368l-668 -1368h-41zM1040 1577l433 274l-9 -49l-430 -266z" />
    <glyph glyph-name="wacute" unicode="&#x1e83;" horiz-adv-x="1644" 
d="M291 0l-152 1106h45l142 -1022l577 1022h35l217 -1022l502 1022h45l-545 -1106h-31l-219 1032l-585 -1032h-31zM936 1241l432 275l-8 -50l-430 -266z" />
    <glyph glyph-name="Wdieresis" unicode="&#x1e84;" horiz-adv-x="1851" 
d="M360 0l-131 1442h50l120 -1354l660 1354h49l180 -1354l600 1354h49l-643 -1442h-41l-184 1368l-668 -1368h-41zM920 1620q-23 0 -36.5 14.5t-13.5 36.5q0 28 21.5 50t50.5 22q21 0 34 -14.5t13 -36.5q0 -28 -21 -50t-48 -22zM1194 1620q-23 0 -36 14.5t-13 36.5
q0 28 21.5 50t50.5 22q21 0 34 -14t13 -35q0 -29 -21 -51.5t-49 -22.5z" />
    <glyph glyph-name="wdieresis" unicode="&#x1e85;" horiz-adv-x="1644" 
d="M291 0l-152 1106h45l142 -1022l577 1022h35l217 -1022l502 1022h45l-545 -1106h-31l-219 1032l-585 -1032h-31zM815 1284q-23 0 -36 14.5t-13 36.5q0 28 21.5 50t50.5 22q21 0 34 -14.5t13 -36.5q0 -28 -21 -50t-49 -22zM1090 1284q-23 0 -36.5 14.5t-13.5 36.5
q0 28 21.5 50t50.5 22q21 0 34 -14t13 -35q0 -29 -20.5 -51.5t-48.5 -22.5z" />
    <glyph glyph-name="uni1EBC" unicode="&#x1ebc;" horiz-adv-x="980" 
d="M1036 1442l-8 -37h-663l-117 -666h602l-6 -37h-602l-117 -665h663l-8 -37h-704l256 1442h704zM453 1530q19 63 57.5 99t89.5 36q34 0 61 -16t42.5 -35t41.5 -35t58 -16q34 0 63.5 25.5t42.5 70.5h37q-12 -56 -54.5 -94.5t-94.5 -38.5q-36 0 -65 16t-45.5 35t-41.5 35
t-53 16q-74 0 -103 -98h-36z" />
    <glyph glyph-name="uni1EBD" unicode="&#x1ebd;" horiz-adv-x="1286" 
d="M750 1083q-97 0 -189 -31.5t-173 -92t-139.5 -161t-80.5 -227.5h962q28 133 10 230t-77 159.5t-138.5 92.5t-174.5 30zM1133 375q-60 -175 -214 -282t-364 -107q-235 0 -356.5 152.5t-75.5 414.5q31 174 123 304t224 196.5t286 66.5q122 0 214 -41.5t141 -110t67 -151.5
t2 -172q-16 -82 -23 -110h-997q-21 -128 3 -228.5t82.5 -161t139 -91.5t176.5 -31q186 0 331 94.5t200 257.5h41zM567 1237q19 63 57.5 99t90.5 36q34 0 61 -16t42.5 -35t41.5 -35t58 -16q34 0 63.5 25.5t42.5 70.5h37q-12 -56 -55 -94.5t-95 -38.5q-36 0 -64.5 16t-45 35
t-41.5 35t-53 16q-74 0 -103 -98h-37z" />
    <glyph glyph-name="Ygrave" unicode="&#x1ef2;" horiz-adv-x="1060" 
d="M520 604l-301 838h49l281 -793l559 793h49l-596 -838l-106 -604h-41zM526 1759l9 49l333 -274l-6 -41z" />
    <glyph glyph-name="ygrave" unicode="&#x1ef3;" horiz-adv-x="1030" 
d="M414 -4l-275 1110h45l265 -1047l593 1047h45l-917 -1626h-49zM461 1466l8 50l334 -275l-6 -41z" />
    <glyph glyph-name="uni1EF8" unicode="&#x1ef8;" horiz-adv-x="1060" 
d="M520 604l-301 838h49l281 -793l559 793h49l-596 -838l-106 -604h-41zM508 1530q19 63 57.5 99t89.5 36q34 0 61 -16t42.5 -35t41.5 -35t58 -16q34 0 64 25.5t43 70.5h36q-12 -56 -54.5 -94.5t-94.5 -38.5q-36 0 -65 16t-45.5 35t-41.5 35t-53 16q-73 0 -102 -98h-37z" />
    <glyph glyph-name="uni1EF9" unicode="&#x1ef9;" horiz-adv-x="1030" 
d="M414 -4l-275 1110h45l265 -1047l593 1047h45l-917 -1626h-49zM442 1237q19 63 57.5 99t90.5 36q34 0 61 -16t42.5 -35t41.5 -35t58 -16q34 0 63.5 25.5t42.5 70.5h37q-12 -56 -55 -94.5t-95 -38.5q-36 0 -64.5 16t-45 35t-41.5 35t-53 16q-74 0 -103 -98h-37z" />
    <glyph glyph-name="zerowidthnonjoiner" unicode="&#x200c;" horiz-adv-x="0" 
d="M49 -471h-96v2132h96v-2132z" />
    <glyph glyph-name="zerowidthjoiner" unicode="&#x200d;" horiz-adv-x="0" 
d="M262 1214l-67 -67l-148 153v-1771h-96v1771l-141 -149l-68 68l190 190l-194 195l67 67l195 -194l197 194l65 -65l-196 -197z" />
    <glyph glyph-name="endash" unicode="&#x2013;" horiz-adv-x="1189" 
d="M119 760l6 37h1026l-6 -37h-1026z" />
    <glyph glyph-name="emdash" unicode="&#x2014;" horiz-adv-x="1564" 
d="M119 760l6 37h1401l-6 -37h-1401z" />
    <glyph glyph-name="quoteleft" unicode="&#x2018;" horiz-adv-x="299" 
d="M342 1442h37l-180 -393h-66z" />
    <glyph glyph-name="quoteright" unicode="&#x2019;" horiz-adv-x="299" 
d="M186 1049h-36l180 393h65z" />
    <glyph glyph-name="quotesinglbase" unicode="&#x201a;" horiz-adv-x="282" 
d="M-201 -317l248 507h53l-260 -507h-41z" />
    <glyph glyph-name="quotedblleft" unicode="&#x201c;" horiz-adv-x="534" 
d="M342 1442h37l-180 -393h-66zM567 1442h37l-180 -393h-66z" />
    <glyph glyph-name="quotedblright" unicode="&#x201d;" horiz-adv-x="534" 
d="M397 1049h-37l181 393h65zM172 1049h-37l180 393h66z" />
    <glyph glyph-name="quotedblbase" unicode="&#x201e;" horiz-adv-x="282" 
d="M-201 -317l248 507h53l-260 -507h-41z" />
    <glyph glyph-name="dagger" unicode="&#x2020;" horiz-adv-x="878" 
d="M551 1100l364 6l-8 -41l-360 6l-277 -1591h-37l283 1591l-364 -6l8 41l360 -6l84 485h37z" />
    <glyph glyph-name="daggerdbl" unicode="&#x2021;" horiz-adv-x="880" 
d="M918 1106l-9 -41l-360 6l-191 -1077l365 8l-8 -43l-363 6l-82 -485h-37l89 485l-365 -6l8 43l363 -8l190 1077l-366 -6l8 41l362 -6l82 485h37l-88 -485z" />
    <glyph glyph-name="bullet" unicode="&#x2022;" horiz-adv-x="524" 
d="M250 483q-83 0 -131.5 58t-34.5 141q15 84 84.5 143.5t153.5 59.5t131 -59t32 -144q-13 -83 -81.5 -141t-153.5 -58z" />
    <glyph glyph-name="ellipsis" unicode="&#x2026;" horiz-adv-x="825" 
d="M381 51q-4 -24 -22.5 -39.5t-41.5 -15.5t-35 15t-8 40t22.5 40t41.5 15t35 -15t8 -40zM678 51q-4 -24 -22 -39.5t-42 -15.5q-23 0 -35 15t-8 40t22.5 40t41.5 15t35 -15t8 -40zM84 51q-4 -25 -22 -40t-42 -15q-23 0 -35 15t-8 40t22.5 40t41.5 15t35 -15t8 -40z" />
    <glyph glyph-name="perthousand" unicode="&#x2030;" horiz-adv-x="1697" 
d="M195 1192q20 114 107.5 189t199.5 75t172.5 -75t40.5 -189t-107.5 -189t-199.5 -75t-172.5 75t-40.5 189zM496 1419q-96 0 -169.5 -64t-90.5 -163t32.5 -163t145.5 -64t169.5 64t90.5 163t-32.5 163t-145.5 64zM-14 0l1122 1442h47l-1122 -1442h-47zM428 248
q20 114 106.5 189t198.5 75q113 0 174 -75t41 -189t-107.5 -189t-199.5 -75t-172.5 75t-40.5 189zM727 475q-96 0 -168.5 -64t-89.5 -163q-19 -99 31.5 -163.5t146.5 -64.5t168.5 64.5t91.5 163.5q17 99 -33.5 163t-146.5 64zM1042 248q20 114 107 189t199 75q113 0 174 -75
t41 -189t-107.5 -189t-200.5 -75q-112 0 -172.5 75t-40.5 189zM1341 475q-96 0 -168.5 -64t-89.5 -163q-19 -98 31.5 -163t147.5 -65q96 0 168.5 64.5t91.5 163.5q17 99 -34 163t-147 64z" />
    <glyph glyph-name="guilsinglleft" unicode="&#x2039;" horiz-adv-x="468" 
d="M152 604l161 -358h-55l-158 358l283 359h55z" />
    <glyph glyph-name="guilsinglright" unicode="&#x203a;" horiz-adv-x="468" 
d="M106 246h-57l287 358l-162 359h57l154 -359z" />
    <glyph glyph-name="fraction" unicode="&#x2044;" horiz-adv-x="423" 
d="M-344 0l1122 1442h49l-1122 -1442h-49z" />
    <glyph glyph-name="rupee" unicode="&#x20a8;" horiz-adv-x="2027" 
d="M1042 1034q18 84 5.5 151.5t-51.5 115.5t-116.5 74t-191.5 26h-323l-129 -729h323q420 0 483 362zM332 1442h364q236 0 328.5 -109t58.5 -299q-32 -191 -160 -294t-339 -111l331 -629h-51l-329 629h-306l-112 -629h-41zM1223 834q23 131 129 208.5t258 77.5
q164 0 250 -90.5t77 -247.5h-41q4 60 -10.5 113t-48 95.5t-93.5 67.5t-140 25q-137 0 -228 -68.5t-112 -180.5q-11 -59 5 -102.5t51.5 -69t84 -43.5t103.5 -31.5l110 -27t103 -35t82.5 -52t49 -82t2.5 -119.5q-23 -127 -125.5 -206.5t-246.5 -79.5q-175 0 -273.5 91.5
t-89.5 246.5h41q-10 -129 74 -215t256 -86q131 0 218 70t106 179q11 61 -4.5 106.5t-51 72.5t-84 46t-103.5 32.5t-109.5 27t-103 34.5t-83 50t-50 78t-3.5 115z" />
    <glyph glyph-name="Euro" unicode="&#x20ac;" horiz-adv-x="1714" 
d="M291 719q11 58 31 127h-230l6 37h236q93 259 299.5 416t460.5 157q251 0 395 -116t184 -324h-41q-34 183 -171.5 293t-373.5 110q-231 0 -425 -143.5t-285 -392.5h618l-6 -37h-624q-21 -73 -31 -127q-15 -85 -15 -164h619l-6 -37h-610q12 -230 154 -362.5t364 -132.5
q235 0 412 109.5t276 291.5h41q-113 -206 -298.5 -322t-436.5 -116q-245 0 -394.5 144.5t-163.5 387.5h-241l6 37h235q0 79 15 164z" />
    <glyph glyph-name="indianrupee" unicode="&#x20b9;" horiz-adv-x="1380" 
d="M283 1405l8 37h1114l-8 -37h-344l-49 -283q-2 -9 -5.5 -27.5t-5.5 -27.5h344l-6 -37h-346q-19 -78 -44.5 -134t-65.5 -98t-88.5 -67.5t-122 -41t-158 -21.5t-203.5 -6l-45 -265q-33 -184 34.5 -282.5t235.5 -98.5q158 0 256 93t129 268h41q-35 -195 -148.5 -296
t-283.5 -101q-188 0 -263 108.5t-42 296.5l55 313q153 0 253 8.5t176.5 29t122 60t74 94.5t48.5 140h-729l6 37h731q1 9 11 59l49 279h-731z" />
    <glyph glyph-name="uni20BA" unicode="&#x20ba;" horiz-adv-x="1574" 
d="M729 1442l-92 -520l473 135l-6 -41l-475 -135l-54 -303l474 131l-7 -41l-473 -131l-96 -537q82 -16 154 -16q333 0 539 199t276 597h41q-72 -404 -286.5 -618.5t-575.5 -214.5q-98 0 -193 24l98 553l-417 -114l6 41l417 114l56 303l-420 -118l6 41l420 118l94 533h41z
" />
    <glyph glyph-name="uni20BD" unicode="&#x20bd;" horiz-adv-x="1204" 
d="M487 1401l-125 -709h324q420 0 481 352q32 175 -50.5 266t-305.5 91h-324zM150 649l8 43h164l133 750h364q237 0 330 -105t59 -293q-70 -395 -530 -395h-324l-49 -282h561l-6 -37h-563l-57 -330h-41l59 330h-164l6 37h164l49 282h-163z" />
    <glyph glyph-name="uni2113" unicode="&#x2113;" horiz-adv-x="389" 
d="M76 0l268 1516h41l-268 -1516h-41z" />
    <glyph glyph-name="trademark" unicode="&#x2122;" horiz-adv-x="1411" 
d="M211 1401l8 41h471l-8 -41h-213l-121 -680h-41l121 680h-217zM666 721l129 721h41l188 -666l422 666h41l-129 -721h-41l110 620l-395 -620h-41l-174 620l-110 -620h-41z" />
    <glyph glyph-name="uni2126" unicode="&#x2126;" horiz-adv-x="1626" 
d="M131 721q29 160 109 298t193 233.5t253 149.5t287 54q146 0 267 -54t199.5 -149.5t110 -233.5t2.5 -298q-43 -248 -198.5 -433t-378.5 -243v-8h418l-9 -37h-571l8 45q170 14 314 100.5t243.5 236t132.5 339.5q27 153 -2 284.5t-103 221.5t-187.5 141t-251.5 51
q-189 0 -358.5 -89t-286.5 -249t-152 -360q-49 -286 78 -470t375 -206l-9 -45h-571l8 37h418v8q-200 58 -290.5 243.5t-47.5 432.5z" />
    <glyph glyph-name="estimated" unicode="&#x212e;" horiz-adv-x="1581" 
d="M1360 285q-331 -299 -651 -299q-149 0 -267 45.5t-195.5 130t-107 214.5t-0.5 292q27 155 95.5 290t169.5 236t240 159t298 58q106 0 196 -25t154.5 -69.5t113.5 -106t72.5 -134t31.5 -153.5t-9 -165l-22 -123h-1172l-57 -324q67 -139 176 -205.5t293 -66.5q152 0 284 70
t316 223zM324 723h964l66 379q-50 120 -158.5 186t-263.5 66q-159 0 -300.5 -69t-246.5 -212z" />
    <glyph glyph-name="partialdiff" unicode="&#x2202;" horiz-adv-x="1085" 
d="M954 686q73 408 -247 408q-140 0 -267 -91t-215 -247t-123 -348q-33 -195 36.5 -293.5t203.5 -98.5q148 0 279.5 94.5t216.5 246t116 329.5zM61 408q19 107 58 209.5t98.5 195.5t132.5 163.5t167 112t196 41.5q334 0 278 -419q24 114 36 208.5t12.5 183t-17 155.5
t-52.5 118t-95 77t-142 26q-72 0 -178 -27l8 41q91 23 176 23q428 0 312 -658q-70 -402 -267 -642.5t-450 -240.5q-73 0 -130 26t-96.5 79.5t-52 135t5.5 192.5z" />
    <glyph glyph-name="uni2206" unicode="&#x2206;" horiz-adv-x="1294" 
d="M-49 37l825 1362h39l348 -1362l-8 -37h-1212zM1124 37l-340 1315l-794 -1315h1134z" />
    <glyph glyph-name="product" unicode="&#x220f;" horiz-adv-x="1497" 
d="M283 1405l8 37h1231l-9 -37h-178l-248 -1405h-40l247 1405h-792l-248 -1405h-41l248 1405h-178z" />
    <glyph glyph-name="summation" unicode="&#x2211;" horiz-adv-x="790" 
d="M223 1358l8 41h730l-7 -37h-690l432 -729l-6 -39l-688 -729h688l-6 -37h-729l6 41l703 741z" />
    <glyph glyph-name="minus" unicode="&#x2212;" horiz-adv-x="909" 
d="M119 760l6 37h745l-6 -37h-745z" />
    <glyph glyph-name="uni2215" unicode="&#x2215;" horiz-adv-x="735" 
d="M-92 -319l960 2234h45l-964 -2234h-41z" />
    <glyph glyph-name="uni2219" unicode="&#x2219;" horiz-adv-x="231" 
d="M84 737q-4 -25 -22 -40t-42 -15q-23 0 -35 15t-8 40t22.5 40.5t41.5 15.5t35 -15.5t8 -40.5z" />
    <glyph glyph-name="radical" unicode="&#x221a;" horiz-adv-x="1351" 
d="M260 -94h-10l-146 366l-114 -57l-15 35l150 74l141 -355l1207 1745h40z" />
    <glyph glyph-name="infinity" unicode="&#x221e;" horiz-adv-x="1245" 
d="M930 487q108 0 180.5 62.5t91.5 163.5q18 100 -29.5 159.5t-154.5 59.5q-176 0 -344 -232q21 -40 36.5 -65.5t40 -56.5t48.5 -48.5t58 -30t73 -12.5zM285 492q170 0 336 223q-26 53 -45.5 85t-50 67t-68.5 52t-86 17q-108 0 -180.5 -62.5t-90.5 -162.5q-19 -99 29 -159
t156 -60zM59 711q21 122 109.5 192t208.5 70q44 0 82.5 -14.5t64.5 -34.5t53 -56.5t42 -62.5t38 -72q172 240 367 240q120 0 180 -69.5t39 -190.5q-23 -122 -111 -192t-208 -70q-46 0 -85 13.5t-66.5 33.5t-54 53.5t-43 61.5t-38.5 71q-167 -233 -361 -233q-120 0 -180 69.5
t-37 190.5z" />
    <glyph glyph-name="integral" unicode="&#x222b;" horiz-adv-x="479" 
d="M27 -70l499 1717q28 94 79 141t140 47h50l-11 -37h-45q-65 0 -106.5 -32.5t-67.5 -118.5l-499 -1717q-13 -43 -23.5 -71t-27.5 -57t-38 -45t-52 -26t-72 -10h-60l12 37h58q72 0 102.5 33t61.5 139z" />
    <glyph glyph-name="approxequal" unicode="&#x2248;" horiz-adv-x="843" 
d="M86 549q31 83 85 131.5t128 48.5q45 0 86.5 -21.5t68 -47t64.5 -47t78 -21.5q51 0 94.5 39.5t65.5 97.5h41q-31 -83 -85 -131.5t-128 -48.5q-45 0 -86.5 21.5t-68.5 47t-65.5 47t-78.5 21.5q-51 0 -93.5 -39.5t-64.5 -97.5h-41zM86 907q31 83 85 131.5t128 48.5
q45 0 86.5 -21.5t68 -47t64.5 -47t78 -21.5q51 0 94.5 39.5t65.5 97.5h41q-31 -83 -85 -131.5t-128 -48.5q-45 0 -86.5 21.5t-68.5 47t-65.5 47t-78.5 21.5q-51 0 -93.5 -39.5t-64.5 -97.5h-41z" />
    <glyph glyph-name="notequal" unicode="&#x2260;" horiz-adv-x="1155" 
d="M190 354l213 226h-317l6 36h348l308 326h-596l6 37h626l213 225h50l-216 -225h318l-6 -37h-346l-310 -326h596l-6 -36h-624l-215 -226h-48z" />
    <glyph glyph-name="lessequal" unicode="&#x2264;" horiz-adv-x="802" 
d="M692 457h-57l-500 403l641 406h58l-633 -406zM51 354l6 37h635l-6 -37h-635z" />
    <glyph glyph-name="greaterequal" unicode="&#x2265;" horiz-adv-x="802" 
d="M135 457h-57l633 403l-492 406h57l498 -406zM53 391h635l-6 -37h-635z" />
    <glyph glyph-name="lozenge" unicode="&#x25ca;" horiz-adv-x="1114" 
d="M131 711l537 456l372 -456l-538 -455zM995 715l-331 407l-488 -417l330 -406z" />
    <glyph glyph-name="dottedcircle" unicode="&#x25cc;" horiz-adv-x="1333" 
d="M1141 838q0 -38 -25 -62t-63 -24t-63 24t-25 62t25 62t63 24t63 -24t25 -62zM371 252q0 -38 -25 -62t-63 -24t-63 24t-25 62t25 62t63 24t63 -24t25 -62zM571 96q0 -38 -25 -62t-63 -24t-63 24t-25 62t25 62t63 24t63 -24t25 -62zM279 483q0 -38 -25 -62t-64 -24
q-38 0 -63 24t-25 62t25 62t63 24q39 0 64 -24t25 -62zM825 68q0 -38 -25 -62t-63 -24t-63 24t-25 62t25 62t63 24t63 -24t25 -62zM309 731q0 -38 -25 -62t-63 -24t-63 24t-25 62t25 62t63 24t63 -24t25 -62zM1061 162q0 -38 -25 -62t-63 -24t-63 24t-25 62t25 62t63 24
t63 -24t25 -62zM465 934q0 -38 -25 -62t-63 -24t-63 24t-25 62t25 62t63 24t63 -24t25 -62zM1210 358q0 -38 -25 -62t-63 -24t-63 24t-25 62t25 62t63 24t63 -24t25 -62zM705 1020q0 -38 -25 -62t-64 -24q-38 0 -63 24t-25 62t25 62t63 24q39 0 64 -24t25 -62zM1231 604
q0 -38 -25 -62t-63 -24t-63 24t-25 62t25 62t63 24t63 -24t25 -62zM952 989q0 -38 -25 -62t-63 -24t-63 24t-25 62t25 62t63 24t63 -24t25 -62z" />
    <glyph glyph-name="fi" unicode="&#xfb01;" horiz-adv-x="1011" 
d="M123 0l188 1063h-176l8 43h174l15 78q30 168 127 250t291 82l-9 -41q-178 0 -259.5 -68.5t-108.5 -222.5l-15 -78h598l-196 -1106h-41l188 1063h-555l-188 -1063h-41zM987 1389q-23 0 -35 15t-8 40t21.5 40t40.5 15t36 -15t9 -40t-22.5 -40t-41.5 -15z" />
    <glyph glyph-name="fl" unicode="&#xfb02;" horiz-adv-x="1040" 
d="M123 0l188 1063h-180l8 43h178l15 78q30 168 127 250t291 82l-9 -41q-178 0 -259.5 -68.5t-108.5 -222.5l-15 -78h320l-8 -43h-318l-188 -1063h-41zM727 0l268 1516h41l-268 -1516h-41z" />
    <glyph glyph-name="dvK_SSA" horiz-adv-x="1529" 
d="M342 1204q-25 -153 71 -241.5t267 -94.5q59 32 102 63t84.5 71.5t68.5 91.5t38 112q16 91 -16.5 159.5t-98 103t-149.5 34.5q-129 0 -236 -80.5t-131 -218.5zM672 -96l61 350q-10 -25 -35 -55.5t-65.5 -63.5t-104 -54.5t-135.5 -21.5q-152 0 -227.5 92t-50.5 232
q8 47 27 89.5t39.5 74t57.5 65t63 53.5t76.5 49t77 42.5t85 42t80.5 39.5q-155 18 -247.5 114.5t-66.5 251.5q18 104 81 181.5t146.5 114t174.5 36.5q70 0 130.5 -23t103 -64t60.5 -104.5t5 -138.5q-20 -113 -88 -192t-177 -146h519l114 648h367l-6 -33h-332l-262 -1483h-35
l147 836h-571q-37 -19 -98 -48.5t-100.5 -49.5t-92 -49.5t-87 -58.5t-69.5 -66t-56.5 -82.5t-30.5 -98.5q-22 -126 43.5 -208.5t203.5 -82.5q141 0 240 88.5t123 222.5h35l-88 -499h-35z" />
    <glyph glyph-name="dvJ_NYA" horiz-adv-x="1581" 
d="M1153 0l190 1083h-593q132 -40 197 -144t38 -259q-31 -175 -157.5 -284t-299.5 -109q-158 0 -255 80t-107 180l-72 -416h-35l95 537h32q-11 -167 89.5 -258t252.5 -91q163 0 279.5 102.5t144.5 262.5q33 186 -77 292.5t-316 106.5h-4l6 33h789l63 367h-1358l6 33h1725
l-6 -33h-332l-260 -1483h-35z" />
    <glyph glyph-name="dvK" horiz-adv-x="1579" 
d="M905 0l96 545q-64 -124 -183 -204.5t-279 -80.5q-95 0 -171.5 32t-127.5 92.5t-70.5 149t0.5 201.5q25 140 103.5 246t188.5 160.5t234 54.5q164 0 256 -81.5t113 -207.5l100 576h-1110l6 33h1989l-6 -33h-846l-102 -580q65 129 180 211t276 82q89 0 163.5 -32t125 -90.5
t71 -146t1.5 -192.5h-35q34 195 -62.5 311.5t-265.5 116.5q-84 0 -157 -25.5t-126 -67.5t-95 -98t-67 -114t-38 -119l-129 -739h-33zM541 293q85 0 160.5 26.5t129 68.5t95.5 97t66 110t36 110l6 32q10 47 6.5 97.5t-14 97.5t-38.5 89t-66 73.5t-97 50t-131 18.5
q-112 0 -214 -50t-177 -149t-98 -229q-36 -206 60.5 -324t275.5 -118z" />
    <glyph glyph-name="dvKH" horiz-adv-x="1390" 
d="M1135 360q175 0 299 104.5t155 276.5q31 174 -56.5 278.5t-262.5 104.5q-174 0 -298 -104.5t-155 -278.5q-31 -172 57 -276.5t261 -104.5zM55 1483l6 33h1698l-6 -33h-991l-57 -330q-20 -113 -62.5 -190.5t-102 -117t-120.5 -55.5t-135 -16h-43l-60 -336
q-32 -185 62 -295t286 -110q155 0 278 90.5t187 222.5q-126 37 -183 141.5t-30 253.5q34 191 168 303.5t324 112.5q192 0 288 -112.5t62 -303.5q-33 -190 -169.5 -301.5t-326.5 -111.5q-48 0 -100 10q-33 -68 -81 -127.5t-110 -107.5t-141.5 -75.5t-165.5 -27.5
q-205 0 -312 119t-71 319l66 369h90q307 0 367 346l57 330h-672z" />
    <glyph glyph-name="dvG" horiz-adv-x="909" 
d="M55 1483l6 33h1004l-6 -33h-287l-113 -635q-22 -126 -98.5 -207.5t-208.5 -81.5q-88 0 -142.5 42.5t-71 105.5t-3.5 137l12 61h35l-12 -63q-5 -36 -5.5 -71t12 -67.5t32.5 -57t57 -39.5t86 -15q64 0 114 22t81 60t50 80.5t28 93.5l112 635h-682z" />
    <glyph glyph-name="dvGH" horiz-adv-x="954" 
d="M55 1483l6 33h1285l-7 -33h-933l-37 -209q-28 -159 45.5 -238.5t263.5 -79.5h110l-6 -32h-110q-206 0 -322 -87t-141 -225q-20 -113 25 -191.5t136 -114.5t218 -36q214 0 385 134t207 341h30q-40 -221 -216.5 -364t-411.5 -143q-217 0 -328 96.5t-80 277.5
q25 141 132.5 228t244.5 98l2 4q-121 13 -183.5 94t-35.5 238l37 209h-316z" />
    <glyph glyph-name="dvNG" horiz-adv-x="1273" 
d="M1174 801q-23 0 -35.5 13.5t-8.5 35.5q5 22 21 35.5t39 13.5q22 0 33 -13.5t8 -35.5t-19 -35.5t-38 -13.5zM631 -588l-170 365h37l172 -365h-39zM57 1483l6 33h1418l-6 -33h-402l-59 -332l-6 -33h-344q-348 0 -392 -239q-11 -64 6 -111t56.5 -73.5t90 -39t112.5 -12.5h92
q63 0 119.5 -10.5t107 -36t84 -63t47 -96t0.5 -130.5q-26 -142 -146.5 -233.5t-316.5 -91.5q-115 0 -202 31.5t-136 86t-67.5 125.5t-3.5 152h35q-13 -76 2 -140.5t59 -115t125.5 -79t193.5 -28.5q176 0 287.5 83.5t134.5 209.5q12 70 -1 124t-44 87.5t-79 54.5t-98.5 29
t-108.5 8h-93q-143 0 -228 69.5t-62 201.5q11 63 41.5 111.5t70.5 77.5t92.5 48t102 26t104.5 7h330l59 332h-981z" />
    <glyph glyph-name="dvC" horiz-adv-x="976" 
d="M156 1075l6 33h731l-6 -33h-60q-199 0 -338.5 -117t-169.5 -294q-32 -183 69 -289.5t274 -106.5q181 0 326 124t173 290h29q-16 -116 -92 -218t-194 -165t-247 -63q-87 0 -162.5 29t-128.5 82.5t-76 135.5t-5 181q28 150 124 258.5t240 152.5h-493zM55 1483l6 33h1276
l-6 -33h-1276z" />
    <glyph glyph-name="dvCH" horiz-adv-x="1654" 
d="M51 1483l4 33h1805l-5 -33h-1464l-49 -277q-28 -159 44.5 -238t262.5 -79h49l-4 -33h-49q-108 0 -196 -27t-147 -74.5t-95 -108.5t-49 -132q-24 -133 42 -228.5t191.5 -140.5t292.5 -45q200 0 375.5 75.5t297 219.5t154.5 332q16 102 3.5 175.5t-50.5 121t-88 70
t-108 22.5q-51 0 -102.5 -15.5t-102 -48.5t-88.5 -95t-53 -144q-17 -93 2 -219h-35q-21 117 -2 219q16 90 57.5 158t97 105t113.5 55t119 18q67 0 123 -24.5t98 -75.5t56 -130.5t-3 -189.5q-36 -204 -162 -355.5t-309 -228.5t-397 -77q-180 0 -313.5 50.5t-201 153
t-42.5 242.5q28 158 141 250.5t260 105.5v4q-57 6 -101 27t-77.5 61t-42.5 100t4 144l49 277h-305z" />
    <glyph glyph-name="dvJ" horiz-adv-x="1136" 
d="M446 326q-145 1 -216.5 105.5t-43.5 264.5l62 346h35l-62 -348q-27 -149 36.5 -242.5t197.5 -93.5q139 0 238 93t126 243l62 348h569l-4 -32h-537l-55 -314q-30 -167 -138.5 -269t-269.5 -101zM55 1483l6 33h1473l-6 -33h-1473z" />
    <glyph glyph-name="dvJH" horiz-adv-x="1167" 
d="M70 1483l6 33h1456l-6 -33h-441l-59 -332l-6 -33h-346q-50 0 -95.5 -5t-97.5 -21t-91.5 -41t-70 -69.5t-40.5 -102.5q-12 -64 4.5 -111t56.5 -73.5t91.5 -39t115.5 -12.5h829l-4 -31l-559 2q101 -28 153.5 -106.5t30.5 -200.5q-25 -133 -131.5 -220t-287.5 -87
q-80 0 -147 19.5t-107.5 47.5t-70 63t-42 62t-16.5 48l-70 -385h-35l90 499h31q-1 -64 20.5 -120.5t64.5 -102t117.5 -72t172.5 -26.5q164 0 260.5 78.5t116.5 195.5q26 142 -59.5 222.5t-270.5 80.5h-92q-97 0 -168 27.5t-108 89.5t-21 152q13 78 56 133.5t104.5 84.5
t125 41.5t134.5 12.5h327l60 332h-981z" />
    <glyph glyph-name="dvNY" horiz-adv-x="1150" 
d="M516 248q-78 0 -142 20t-105 51.5t-70 74t-42.5 85t-17.5 86.5h35q5 -52 25 -99t58.5 -89.5t105.5 -68t155 -25.5q199 0 329 127t163 315q10 69 7.5 132.5t-27.5 119t-65 96.5t-105 64.5t-146 23.5q-89 0 -166.5 -26t-131.5 -69.5t-90 -91t-57 -97.5h-34q18 46 45.5 89.5
t70.5 85.5t95 73t123 50t151 19q88 0 158 -25.5t112.5 -68.5t70 -101t31 -123t-4.5 -133h280l-6 -32h-279q-18 -90 -60 -171t-106 -147.5t-157.5 -105.5t-202.5 -39zM55 1483l6 33h1403l-6 -33h-1403z" />
    <glyph glyph-name="dvTT" horiz-adv-x="1329" 
d="M696 -440l-172 364h37l174 -364h-39zM45 1483l6 33h1483l-6 -33h-508l-62 -342h-139q-118 0 -223 -31t-191.5 -91.5t-146.5 -157.5t-82 -222q-38 -208 81.5 -342.5t334.5 -134.5q216 0 370 137t191 356h35q-40 -235 -203 -380.5t-399 -145.5q-148 0 -259.5 65t-162 183
t-23.5 264q24 135 87.5 238.5t156 167t203.5 95.5t237 32h107l53 309h-940z" />
    <glyph glyph-name="dvTTH" horiz-adv-x="1382" 
d="M692 -440l-172 364h37l174 -364h-39zM580 162q133 0 254.5 58.5t206 166t108.5 242.5q37 209 -76.5 346t-324.5 137q-205 0 -369.5 -131t-200.5 -336q-24 -136 20.5 -247t145 -173.5t236.5 -62.5zM573 129q-145 0 -252.5 66.5t-155.5 185t-22 264.5q38 217 204 355.5
t388 144.5l60 338h-750l6 33h1536l-6 -33h-752l-59 -338q215 -6 333.5 -152.5t80.5 -363.5q-26 -146 -114.5 -260.5t-218.5 -177t-278 -62.5z" />
    <glyph glyph-name="dvDD" horiz-adv-x="1193" 
d="M645 -588l-170 365h37l172 -365h-39zM57 1483l6 33h1336l-6 -33h-334l-66 -365h-329q-348 0 -392 -239q-11 -64 6 -111t56.5 -73.5t90 -39t112.5 -12.5h92q63 0 119.5 -10.5t107 -36t84 -63t47 -96t0.5 -130.5q-26 -142 -146.5 -233.5t-316.5 -91.5q-115 0 -202 31.5
t-136 86t-67.5 125.5t-3.5 152h35q-13 -76 2 -140.5t59 -115t125.5 -79t193.5 -28.5q176 0 287.5 83.5t134.5 209.5q12 70 -1 124t-44 87.5t-79 54.5t-98.5 29t-108.5 8h-93q-143 0 -228 69.5t-62 201.5q11 63 41.5 111.5t70.5 77.5t92.5 48t102 26t104.5 7h316l59 332h-967
z" />
    <glyph glyph-name="dvDDH" horiz-adv-x="1282" 
d="M713 -522l-170 364h37l172 -364h-39zM51 1483l6 33h1430l-6 -33h-418l-59 -342h-156q-163 0 -300.5 -57.5t-238.5 -181t-131 -298.5q-27 -153 23 -273t162.5 -185.5t265.5 -65.5q181 0 314 99.5t161 252.5q23 128 -43.5 211.5t-192.5 83.5q-113 0 -199.5 -69t-103.5 -183
q-4 -28 -4 -45h-35q0 19 4 47q23 130 118.5 206.5t225.5 76.5q136 0 213 -93.5t52 -234.5q-29 -168 -173.5 -276.5t-342.5 -108.5q-247 0 -384.5 155.5t-95.5 399.5q26 144 93 255.5t163.5 179.5t211 102.5t243.5 34.5h121l53 309h-977z" />
    <glyph glyph-name="dvNN" horiz-adv-x="1157" 
d="M55 1483l6 33h1262l-6 -33h-318l-116 -666q-30 -167 -134 -269t-257 -102q-156 0 -232 103.5t-45 267.5l117 666h-277zM489 479q139 0 235.5 93t123.5 243l117 668h-598l-117 -668q-27 -150 38 -243t201 -93z" />
    <glyph glyph-name="dvT" horiz-adv-x="819" 
d="M573 4q-247 0 -365.5 135.5t-76.5 378.5q46 258 223.5 385t452.5 127h340l-6 -33h-338q-259 0 -426.5 -119.5t-210.5 -359.5q-40 -230 68 -355.5t346 -125.5h49l-6 -33h-50zM55 1483l6 33h1172l-6 -33h-1172z" />
    <glyph glyph-name="dvTH" horiz-adv-x="980" 
d="M1243 702q-34 -201 -201.5 -335t-379.5 -134q-135 0 -236 45t-156 125.5t-70 192.5t23 246h221q68 0 128.5 8t128 31t118.5 60.5t91 101t55 147.5q24 134 -42 222.5t-208 88.5q-178 0 -281.5 -118t-103.5 -308h-35q0 201 114.5 330t309.5 129q152 0 228.5 -99t51.5 -245
q-15 -87 -54.5 -154.5t-93 -109.5t-123.5 -69t-140 -37.5t-148 -10.5h-192q-55 -251 58.5 -397t363.5 -146q121 0 236 54.5t198 156t106 225.5h33z" />
    <glyph glyph-name="dvD" horiz-adv-x="1243" 
d="M1024 -569l-170 364h37l172 -364h-39zM55 1483l6 33h1387l-6 -33h-348l-56 -312h-247q-141 0 -261 -45.5t-210 -146.5t-115 -246q-34 -195 64 -315.5t290 -120.5q51 0 105 12t110.5 39.5t103 68t82 103t48.5 137.5h30l-114 -657h-35l86 494q-52 -100 -167.5 -165
t-252.5 -65q-205 0 -313.5 131.5t-71.5 337.5q21 121 81 213.5t146 147.5t186 82.5t212 27.5h213l51 279h-1004z" />
    <glyph glyph-name="dvDH" horiz-adv-x="899" 
d="M545 238q-123 0 -212 38t-132 117t-23 189q25 134 115.5 211.5t200.5 87.5v4q-112 21 -175.5 105.5t-37.5 226.5q24 137 126.5 227t247.5 90q156 0 224 -99t24 -261h-35q42 152 -18 239.5t-201 87.5q-126 0 -219.5 -82.5t-114.5 -204.5q-26 -142 52 -227.5t254 -85.5h110
l-6 -33h-111q-174 0 -276.5 -80t-124.5 -206q-19 -102 23.5 -174.5t124 -105t190.5 -32.5q217 0 373 115.5t188 298.5h31q-36 -198 -198 -322t-400 -124z" />
    <glyph glyph-name="dvN" horiz-adv-x="1062" 
d="M455 328q-165 0 -253.5 100.5t-60.5 255.5q28 164 150.5 263.5t300.5 99.5h776l-6 -31h-641q91 -31 139.5 -119t26.5 -209q-28 -158 -148.5 -259t-283.5 -101zM461 360q144 0 254 94.5t137 233.5q28 142 -51 234t-226 92q-151 0 -262 -91.5t-137 -238.5
q-26 -143 53 -233.5t232 -90.5zM55 1483l6 33h1389l-6 -33h-1389z" />
    <glyph glyph-name="dvP" horiz-adv-x="815" 
d="M55 1483l6 33h1110l-6 -33h-798l-93 -522q-37 -216 42 -335.5t268 -119.5q175 0 294 109t150 270h31q-33 -183 -161.5 -297.5t-315.5 -114.5q-202 0 -292 129.5t-50 358.5l92 522h-277z" />
    <glyph glyph-name="dvPH" horiz-adv-x="1579" 
d="M563 506q167 0 282 112t144 279l103 586h-725l-93 -522q-38 -219 32.5 -337t256.5 -118zM55 1483l6 33h1917l-6 -33h-846l-102 -586q63 131 180 215t281 84q185 0 289 -126t67 -335h-35q34 195 -62 311.5t-265 116.5q-84 0 -157.5 -25.5t-127 -68t-95.5 -99t-67 -115.5
t-37 -120l-129 -735h-35l127 723q-60 -117 -164.5 -183.5t-238.5 -66.5q-198 0 -276.5 127.5t-38.5 360.5l92 522h-277z" />
    <glyph glyph-name="dvB" horiz-adv-x="919" 
d="M584 246q-101 0 -185.5 33t-143 93t-83.5 151t-6 200q27 149 112.5 262t205 171t255.5 58q71 0 131.5 -15.5t104 -43t78.5 -65t54.5 -81t32.5 -91t12 -96t-7 -95.5q-17 -96 -65 -182.5t-119.5 -153t-169.5 -106t-207 -39.5zM737 1182q-191 0 -340 -121l549 -637
q66 63 109 144t57 159q12 53 7 107t-18.5 104.5t-45 95t-74 77.5t-105.5 52t-139 19zM55 1483l6 33h1223l-6 -33h-1223zM584 279q194 0 340 122l-551 641q-135 -122 -172 -319q-35 -204 77.5 -324t305.5 -120z" />
    <glyph glyph-name="dvBH" horiz-adv-x="1013" 
d="M430 311q127 0 216 93t118 260l39 215h-250q-135 0 -233 -78t-121 -207q-23 -126 42.5 -204.5t188.5 -78.5zM430 279q-140 0 -215.5 88t-50.5 227q26 144 134 230.5t259 86.5h250l41 228q30 171 -17 265.5t-178 94.5q-113 0 -197 -76.5t-108 -210.5q-6 -44 -6 -90h-35
q0 46 6 90q26 149 119 235.5t221 86.5q146 0 204.5 -103t25.5 -290l-41 -230h395l-4 -32h-397l-37 -213q-33 -192 -129 -289.5t-240 -97.5z" />
    <glyph glyph-name="dvM" horiz-adv-x="1007" 
d="M350 311q127 0 215 92.5t119 260.5l37 215h-250q-135 0 -232 -77.5t-120 -207.5q-23 -126 42.5 -204.5t188.5 -78.5zM55 1483l6 33h1278l-6 -33h-471l-100 -572h471l-6 -32h-471l-37 -213q-33 -192 -129 -289.5t-240 -97.5q-140 0 -215.5 88t-50.5 227q25 144 133 230.5
t260 86.5h250l100 572h-772z" />
    <glyph glyph-name="dvY" horiz-adv-x="962" 
d="M55 1483l6 33h1285l-7 -33h-546l-31 -183q-17 -93 -52.5 -163.5t-83 -115t-112 -72.5t-132.5 -39t-151 -11h-6q-2 -9 -4.5 -22.5t-3.5 -16.5q-47 -254 67 -399.5t351 -145.5q197 0 354.5 123.5t190.5 319.5h32q-34 -207 -196.5 -341t-388.5 -134q-248 0 -369 157.5
t-74 419.5q6 36 17 72h37q72 0 131.5 8.5t120.5 33t106 64.5t80 106.5t51 155.5l31 183h-703z" />
    <glyph glyph-name="dvR" horiz-adv-x="1103" 
d="M549 -592l-170 365h37l172 -365h-39zM57 1483l6 33h1248l-6 -33h-308l-47 -273q-40 -225 -175.5 -334.5t-342.5 -109.5h-190l-60 -348q-34 -181 38.5 -292.5t238.5 -111.5q151 0 251 100t130 271l4 23h35q-5 -20 -5 -23q-31 -187 -140 -295t-275 -108q-183 0 -267 120.5
t-45 317.5l66 379h225q191 0 315.5 101.5t161.5 309.5l48 273h-906z" />
    <glyph glyph-name="dvL" horiz-adv-x="1427" 
d="M518 213q-146 0 -240.5 65t-126.5 173.5t-6 246.5q35 202 154.5 325.5t304.5 123.5q69 0 123.5 -22t87.5 -57t54 -82.5t28.5 -95t5.5 -97.5h4q21 66 54.5 124t84 112t125.5 86t164 32q119 0 194.5 -61.5t99 -161.5t1.5 -226h-35q20 117 0.5 209t-87.5 149.5t-177 57.5
q-171 0 -285.5 -131t-154.5 -362l-2 -17h-35l2 17q42 228 -22.5 360.5t-231.5 132.5q-172 0 -281 -115t-141 -301q-23 -130 4 -229.5t113 -160t223 -60.5q18 0 64 4l-6 -35q-40 -4 -60 -4zM37 1483l6 33h1731l-7 -33h-1730z" />
    <glyph glyph-name="dvV" horiz-adv-x="894" 
d="M573 256q-101 0 -184 32.5t-138.5 92.5t-77.5 151.5t-3 202.5q25 142 108.5 250t201.5 163.5t251 55.5q71 0 131.5 -15.5t103.5 -42.5t76.5 -63.5t52 -79t30.5 -89.5t10.5 -94t-7.5 -93q-11 -65 -39 -129.5t-76 -126.5t-109.5 -109.5t-147.5 -76.5t-183 -29zM575 289
q113 0 209 41t158 107.5t100.5 140.5t51.5 149q12 51 8 104t-16 102.5t-42 92.5t-71.5 75.5t-103.5 51t-138 18.5q-190 0 -340 -118.5t-186 -317.5q-36 -208 69.5 -327t300.5 -119zM55 1483l6 33h1207l-6 -33h-1207z" />
    <glyph glyph-name="dvSH" horiz-adv-x="1075" 
d="M483 -18q-191 0 -272 119t-45 319l57 328h314q123 0 226.5 43t176.5 129.5t94 205.5q30 170 -52.5 272.5t-236.5 102.5q-189 0 -306 -135t-117 -342h-35q0 222 128 366t330 144q174 0 265.5 -115.5t56.5 -300.5q-36 -193 -183.5 -298t-353.5 -105h-278l-51 -297
q-33 -183 37.5 -293.5t242.5 -110.5q155 0 264.5 107t137.5 287h35q-29 -188 -142 -307t-293 -119z" />
    <glyph glyph-name="dvSS" horiz-adv-x="798" 
d="M584 506q66 0 125.5 17t102 43t78.5 61.5t58.5 68t38.5 66.5l-627 680l-86 -481q-38 -210 49 -332.5t261 -122.5zM55 1483l6 33h1096l-6 -33h-784l657 -713q-21 -53 -56 -102.5t-87.5 -94.5t-128.5 -72.5t-164 -27.5q-194 0 -291.5 131.5t-56.5 356.5l92 522h-277z" />
    <glyph glyph-name="dvS" horiz-adv-x="1097" 
d="M55 1483l6 33h1375l-6 -33h-435l-43 -232q-33 -175 -128 -277.5t-214 -135.5h707l-6 -31h-1063l-68 -389q-32 -184 40 -294t241 -110q156 0 255.5 110t125.5 284h35q-13 -90 -46 -166.5t-84 -135t-125 -91.5t-163 -33q-181 0 -264.5 120t-49.5 318l74 420h225
q185 0 313 110.5t163 300.5l43 232h-908z" />
    <glyph glyph-name="dvH" horiz-adv-x="1202" 
d="M590 -766l-172 365h37l174 -365h-39zM958 98q-22 -52 -61.5 -101.5t-97 -95t-139.5 -73t-175 -27.5q-88 0 -158.5 23.5t-115 64.5t-73.5 96.5t-33.5 119t4.5 131.5q24 136 112 245.5t223 159.5q-33 11 -63.5 29.5t-60 49t-42 78.5t-2.5 105q12 68 47 118t87 79t113 43
t132 14h359l57 326h-997l6 33h1345l-6 -33h-313l-57 -326l-7 -33h-393q-83 0 -151 -19.5t-121.5 -71.5t-67.5 -132q-18 -97 37 -159t156 -85q77 15 131 15q94 0 167.5 -27.5t116 -73t65 -95t26.5 -101.5h-35q-4 46 -24.5 90t-59.5 84.5t-107 65t-155 24.5q-98 0 -184 -34
t-146 -91t-100 -128.5t-54 -149.5q-10 -65 -6.5 -123.5t29.5 -109t67 -88t105.5 -58.5t146.5 -21q159 0 275 79.5t164 182.5h34z" />
    <glyph glyph-name="dvLL" horiz-adv-x="2086" 
d="M518 272q-196 0 -302.5 126.5t-72.5 320.5q36 207 184.5 334t342.5 127q75 0 137.5 -19t104.5 -50t72 -74t44.5 -88.5t18.5 -94.5h4q26 63 67.5 118.5t100.5 103.5t140.5 76t174.5 28q195 0 301 -127.5t70 -333.5q-34 -194 -182.5 -320.5t-344.5 -126.5q-172 0 -271 96.5
t-101 233.5h-5q-50 -138 -181 -234t-302 -96zM520 305q183 0 317 116t167 298q34 190 -58 309t-278 119q-181 0 -319 -118t-171 -310q-32 -183 65 -298.5t277 -115.5zM1380 305q180 0 319 115.5t171 298.5q33 193 -62 310.5t-276 117.5q-186 0 -320 -119t-168 -309
q-33 -181 60 -297.5t276 -116.5zM33 1483l6 33h2253l-6 -33h-2253z" />
    <glyph glyph-name="dvK_SS" horiz-adv-x="1030" 
d="M342 1204q-25 -153 71 -241.5t267 -94.5q59 32 102 63t84.5 71.5t68.5 91.5t38 112q16 91 -16.5 159.5t-98 103t-149.5 34.5q-129 0 -236 -80.5t-131 -218.5zM672 -96l61 350q-10 -25 -35 -55.5t-65.5 -63.5t-104 -54.5t-135.5 -21.5q-152 0 -227.5 92t-50.5 232
q8 47 27 89.5t39.5 74t57.5 65t63 53.5t76.5 49t77 42.5t85 42t80.5 39.5q-155 18 -247.5 114.5t-66.5 251.5q18 104 81 181.5t146.5 114t174.5 36.5q70 0 130.5 -23t103 -64t60.5 -104.5t5 -138.5q-20 -113 -88 -192t-177 -146h517l-7 -32h-569q-37 -19 -98 -48.5
t-100.5 -49.5t-92 -49.5t-87 -58.5t-69.5 -66t-56.5 -82.5t-30.5 -98.5q-22 -126 43.5 -208.5t203.5 -82.5q141 0 240 88.5t123 222.5h35l-88 -499h-35z" />
    <glyph glyph-name="dvJ_NY" horiz-adv-x="1075" 
d="M55 1483l6 33h1498l-7 -33h-1497zM555 1083l6 33h926l-6 -33h-731q132 -40 197 -144t38 -259q-31 -175 -157.5 -284t-299.5 -109q-158 0 -255 80t-107 180l-72 -416h-35l95 537h32q-11 -167 89.5 -258t252.5 -91q163 0 279.5 102.5t144.5 262.5q33 186 -77 292.5
t-316 106.5h-4z" />
    <glyph glyph-name="dvKx" horiz-adv-x="1579" 
d="M905 0l96 545q-64 -124 -183 -204.5t-279 -80.5q-95 0 -171.5 32t-127.5 92.5t-70.5 149t0.5 201.5q25 140 103.5 246t188.5 160.5t234 54.5q164 0 256 -81.5t113 -207.5l100 576h-1110l6 33h1989l-6 -33h-846l-102 -580q65 129 180 211t276 82q89 0 163.5 -32t125 -90.5
t71 -146t1.5 -192.5h-35q34 195 -62.5 311.5t-265.5 116.5q-84 0 -157 -25.5t-126 -67.5t-95 -98t-67 -114t-38 -119l-129 -739h-33zM541 293q85 0 160.5 26.5t129 68.5t95.5 97t66 110t36 110l6 32q10 47 6.5 97.5t-14 97.5t-38.5 89t-66 73.5t-97 50t-131 18.5
q-112 0 -214 -50t-177 -149t-98 -229q-36 -206 60.5 -324t275.5 -118zM469 -43q-22 0 -34 13.5t-9 35.5t19.5 35.5t39.5 13.5q20 0 32 -13.5t9 -35.5t-19 -35.5t-38 -13.5z" />
    <glyph glyph-name="dvKHx" horiz-adv-x="1390" 
d="M444 -303q-22 0 -34 13.5t-9 35.5t20 35.5t40 13.5q20 0 32 -13.5t9 -35.5t-19.5 -35.5t-38.5 -13.5zM1135 360q175 0 299 104.5t155 276.5q31 174 -56.5 278.5t-262.5 104.5q-174 0 -298 -104.5t-155 -278.5q-31 -172 57 -276.5t261 -104.5zM55 1483l6 33h1698l-6 -33
h-991l-57 -330q-20 -113 -62.5 -190.5t-102 -117t-120.5 -55.5t-135 -16h-43l-60 -336q-32 -185 62 -295t286 -110q155 0 278 90.5t187 222.5q-126 37 -183 141.5t-30 253.5q34 191 168 303.5t324 112.5q192 0 288 -112.5t62 -303.5q-33 -190 -169.5 -301.5t-326.5 -111.5
q-48 0 -100 10q-33 -68 -81 -127.5t-110 -107.5t-141.5 -75.5t-165.5 -27.5q-205 0 -312 119t-71 319l66 369h90q307 0 367 346l57 330h-672z" />
    <glyph glyph-name="dvGx" horiz-adv-x="909" 
d="M55 1483l6 33h1004l-6 -33h-287l-113 -635q-22 -126 -98.5 -207.5t-208.5 -81.5q-88 0 -142.5 42.5t-71 105.5t-3.5 137l12 61h35l-12 -63q-5 -36 -5.5 -71t12 -67.5t32.5 -57t57 -39.5t86 -15q64 0 114 22t81 60t50 80.5t28 93.5l112 635h-682zM307 242q-22 0 -34 13.5
t-9 35.5t20 35.5t40 13.5q20 0 32 -13.5t9 -35.5t-19.5 -35.5t-38.5 -13.5z" />
    <glyph glyph-name="dvJx" horiz-adv-x="1136" 
d="M446 326q-145 1 -216.5 105.5t-43.5 264.5l62 346h35l-62 -348q-27 -149 36.5 -242.5t197.5 -93.5q139 0 238 93t126 243l62 348h569l-4 -32h-537l-55 -314q-30 -167 -138.5 -269t-269.5 -101zM55 1483l6 33h1473l-6 -33h-1473zM408 23q-22 0 -34 13.5t-9 35.5t19.5 35.5
t39.5 13.5q20 0 32 -13.5t9 -35.5t-19 -35.5t-38 -13.5z" />
    <glyph glyph-name="dvPHx" horiz-adv-x="1579" 
d="M563 506q167 0 282 112t144 279l103 586h-725l-93 -522q-38 -219 32.5 -337t256.5 -118zM55 1483l6 33h1917l-6 -33h-846l-102 -586q63 131 180 215t281 84q185 0 289 -126t67 -335h-35q34 195 -62 311.5t-265 116.5q-84 0 -157.5 -25.5t-127 -68t-95.5 -99t-67 -115.5
t-37 -120l-129 -735h-35l127 723q-60 -117 -164.5 -183.5t-238.5 -66.5q-198 0 -276.5 127.5t-38.5 360.5l92 522h-277zM489 170q-22 0 -34 13.5t-9 35.5t20 35.5t40 13.5q20 0 32 -13.5t9 -35.5t-19.5 -35.5t-38.5 -13.5z" />
    <glyph glyph-name="dvReph" horiz-adv-x="0" 
d="M-342 1501l33 185q30 172 119.5 261t224.5 89q123 0 182 -78.5t37 -200.5h-33q19 106 -33 176t-159 70q-246 0 -303 -320l-33 -182h-35z" />
    <glyph glyph-name="dvEyelash" horiz-adv-x="491" 
d="M610 870q-54 -12 -149 -12q-66 0 -126 11.5t-115.5 38.5t-93.5 67.5t-54 104.5t-2 143h32q-13 -73 2.5 -131t51 -94.5t88 -60.5t109 -34t118.5 -10q53 0 141 10zM-20 1483l6 33h680l-7 -33h-679z" />
    <glyph glyph-name="dvRashtrasign" horiz-adv-x="0" 
d="M-795 -199l445 367h47l313 -367h-43l-295 346l-415 -346h-52z" />
    <glyph glyph-name="dvK_RA" horiz-adv-x="2091" 
d="M905 0l96 545q-67 -123 -167 -195l-584 -444h-47l497 379q-77 -25 -161 -25q-95 0 -171.5 32t-127.5 92.5t-70.5 149t0.5 201.5q25 140 103.5 246t188.5 160.5t234 54.5q164 0 256 -81.5t113 -207.5l100 576h-1110l6 33h2235l-6 -33h-1092l-102 -580q65 129 180 211
t276 82q89 0 163.5 -32t125 -90.5t71 -146t1.5 -192.5q-39 -221 -182 -348t-334 -127q-61 0 -115 12l6 33q50 -12 115 -12q171 0 305 118.5t170 323.5q34 195 -62.5 311.5t-265.5 116.5q-84 0 -157 -25.5t-126 -67.5t-95 -98t-67 -114t-38 -119l-129 -739h-33zM541 293
q85 0 160.5 26.5t129 68.5t95.5 97t66 110t36 110l6 32q10 47 6.5 97.5t-14 97.5t-38.5 89t-66 73.5t-97 50t-131 18.5q-112 0 -214 -50t-177 -149t-98 -229q-36 -206 60.5 -324t275.5 -118z" />
    <glyph glyph-name="dvKH_RA" horiz-adv-x="1861" 
d="M1434 0l102 582q-58 -111 -164.5 -183.5t-249.5 -72.5q-46 0 -94 10q-75 -143 -192 -230l-543 -415h-49v4l432 328q-80 -23 -154 -23q-204 0 -307 118.5t-68 319.5l66 369h90q44 0 84 7.5t86.5 30t83 59t67.5 100.5t46 149l57 330h-672l6 33h2005l-6 -33h-331l-261 -1483
h-34zM1128 358q94 0 174 35.5t132.5 93t85 122t43.5 130.5q10 44 7 89.5t-13 88.5t-36 80.5t-61 65.5t-89 44.5t-120 16.5q-158 0 -281 -101t-153 -273q-31 -182 58.5 -287t252.5 -105zM530 33q149 0 275.5 91.5t189.5 221.5q-119 38 -178.5 144.5t-34.5 259.5
q32 186 165 296.5t308 110.5q150 0 233.5 -71.5t102.5 -182.5l103 580h-932l-57 -330q-20 -113 -62.5 -190.5t-102 -117t-120.5 -55.5t-135 -16h-43l-60 -336q-32 -185 62 -295t286 -110z" />
    <glyph glyph-name="dvG_RA" horiz-adv-x="1398" 
d="M971 0l110 629l-786 -670h-51l846 723l141 801h-459l-98 -553q-22 -126 -98 -207.5t-209 -81.5q-69 0 -118.5 26.5t-71.5 68.5t-30 94.5t5 105.5l10 51h35l-13 -63q-11 -44 -5 -88.5t24 -80.5t60.5 -58.5t103.5 -22.5q64 0 114 22t81 60t49.5 80.5t27.5 93.5l98 553h-682
l6 33h1543l-7 -33h-331l-260 -1483h-35z" />
    <glyph glyph-name="dvGH_RA" horiz-adv-x="1476" 
d="M588 270q135 0 261 59.5t216 168t115 241.5l131 744h-903l-39 -209q-27 -159 48 -238.5t271 -79.5h100l-6 -32h-94q-211 0 -331.5 -87.5t-147.5 -224.5q-20 -113 25 -191.5t136 -114.5t218 -36zM55 1483l6 33h1620l-6 -33h-329l-263 -1483h-34l100 565
q-66 -123 -178 -203l-631 -481h-49l520 398q-109 -41 -229 -41q-136 0 -234.5 41t-146.5 127t-27 206q25 141 133 228t246 98v4q-121 13 -183.5 94t-35.5 238l39 209h-318z" />
    <glyph glyph-name="dvNG_RA" horiz-adv-x="1275" 
d="M1174 801q-23 0 -34.5 13.5t-6.5 35.5q3 22 19.5 35.5t39.5 13.5q22 0 33 -13.5t8 -35.5q-5 -22 -21 -35.5t-38 -13.5zM57 1483l6 33h1418l-6 -33h-400l-59 -332l-6 -33h-346q-348 0 -392 -239q-11 -64 6 -111t56.5 -73.5t90 -39t112.5 -12.5h92q63 0 119.5 -10.5
t107 -36t84 -63t47 -96t0.5 -130.5q-24 -136 -135.5 -226t-292.5 -99l299 -349h-43l-295 347l-416 -347h-51l424 351q-203 12 -297 123t-65 270h35q-13 -76 2 -140.5t59 -115t125.5 -79t193.5 -28.5q176 0 287.5 83.5t134.5 209.5q12 70 -1 124t-44 87.5t-79 54.5t-98.5 29
t-108.5 8h-93q-143 0 -228 69.5t-62 201.5q11 63 41.5 111.5t70.5 77.5t92.5 48t102 26t104.5 7h332l59 332h-983z" />
    <glyph glyph-name="dvC_RA" horiz-adv-x="1470" 
d="M55 1483l6 33h1614l-6 -33h-330l-262 -1483h-35l93 520q-59 -103 -160 -178l-572 -436h-47l467 358q-79 -28 -166 -28q-90 0 -165.5 29.5t-127.5 83.5t-74 135.5t-5 179.5q26 149 123 258t243 153h-495l6 33h731l-6 -33h-60q-199 0 -337.5 -117t-170.5 -294
q-32 -183 69 -289.5t274 -106.5q180 0 323 120.5t176 283.5l144 811h-1250z" />
    <glyph glyph-name="dvCH_RA" horiz-adv-x="1654" 
d="M684 100q200 0 375.5 75.5t297 219.5t154.5 332q16 102 3.5 175.5t-50.5 121t-88 70t-108 22.5q-51 0 -102.5 -15.5t-102 -48.5t-88.5 -95t-53 -144q-17 -93 2 -219h-35q-21 117 -2 219q15 87 54 153t91.5 104t108.5 57.5t116 21.5l60 334h-926l-49 -277
q-28 -159 44.5 -238t262.5 -79h49l-4 -33h-49q-108 0 -196 -27t-147 -74.5t-95 -108.5t-49 -132q-24 -133 42 -228.5t191.5 -140.5t292.5 -45zM51 1483l4 33h1805l-5 -33h-503l-60 -334q64 -3 117 -29t92 -77.5t51 -129.5t-4 -184q-50 -277 -256 -450t-495 -205l303 -353
h-47l-295 347l-416 -347h-47l418 347h-33q-180 0 -313.5 50.5t-201 153t-42.5 242.5q28 158 141 250.5t260 105.5v4q-57 6 -101 27t-77.5 61t-42.5 100t4 144l49 277h-305z" />
    <glyph glyph-name="dvJ_RA" horiz-adv-x="1685" 
d="M55 1483l6 33h1829l-6 -33h-330l-262 -1483h-35l111 629l-786 -670h-52l846 721l60 330h-529l-28 -170q-28 -164 -136.5 -267.5t-259.5 -103.5t-226 103.5t-46 267.5l37 202h35l-37 -204q-27 -150 35.5 -243t197.5 -93q140 0 240 93.5t125 242.5l35 204h561l80 441h-1465
z" />
    <glyph glyph-name="dvJH_RA" horiz-adv-x="1802" 
d="M1634 1483h-549l-59 -332l-6 -33h-346q-50 0 -95.5 -5t-97.5 -21t-91.5 -41t-70 -69.5t-40.5 -102.5q-12 -64 4.5 -111t56.5 -73.5t91.5 -39t115.5 -12.5h940zM1372 0l80 449l-557 -654h-45l612 715l19 102l-668 2q101 -28 153.5 -106.5t30.5 -200.5
q-25 -133 -131.5 -220t-287.5 -87q-80 0 -147 19.5t-107.5 47.5t-70 63t-42 62t-16.5 48l-70 -385h-35l90 499h31q-1 -64 20.5 -120.5t64.5 -102t117.5 -72t172.5 -26.5q164 0 260.5 78.5t116.5 195.5q26 142 -59.5 222.5t-270.5 80.5h-92q-97 0 -168 27.5t-108 89.5
t-21 152q13 78 56 133.5t104.5 84.5t125 41.5t134.5 12.5h327l60 332h-981l6 33h1931l-6 -33h-332l-262 -1483h-35z" />
    <glyph glyph-name="dvNY_RA" horiz-adv-x="1714" 
d="M57 1483l4 33h1858l-4 -33h-334l-260 -1483h-35l92 520l-778 -663h-49l835 712l33 183h-370q-15 -86 -55 -163t-102.5 -141t-156 -101.5t-205.5 -37.5q-98 0 -174.5 30t-119.5 78t-64.5 102t-19.5 108h34q-2 -50 18 -98.5t59.5 -90.5t109 -68t157.5 -26q101 0 187.5 33.5
t146 91t98.5 131.5t54 158q17 79 2 152t-52.5 128.5t-112 89t-175.5 33.5q-91 0 -168.5 -26t-131.5 -69.5t-90.5 -90.5t-58.5 -98h-34q24 58 62 110t96 100.5t142.5 77.5t184.5 29q108 0 187.5 -34.5t122 -93.5t59 -130.5t6.5 -151.5h368l123 699h-1489z" />
    <glyph glyph-name="dvTT_RA" horiz-adv-x="1329" 
d="M45 1483l6 33h1483l-6 -33h-508l-62 -342h-139q-118 0 -223 -31t-191.5 -91.5t-146.5 -157.5t-82 -222q-38 -208 81.5 -342.5t334.5 -134.5q216 0 370 137t191 356h35q-39 -230 -196 -375t-386 -151l297 -348h-43l-295 346l-415 -346h-52l426 352q-201 21 -311 161.5
t-72 346.5q24 135 87.5 238.5t156 167t203.5 95.5t237 32h107l53 309h-940z" />
    <glyph glyph-name="dvTTH_RA" horiz-adv-x="1382" 
d="M580 162q133 0 254.5 58.5t206 166t108.5 242.5q37 209 -76.5 346t-324.5 137q-205 0 -369.5 -131t-200.5 -336q-24 -136 20.5 -247t145 -173.5t236.5 -62.5zM872 -219l-294 346l-416 -346h-51l424 350q-204 14 -317 159t-75 355q38 217 204 355.5t388 144.5l60 338h-750
l6 33h1536l-6 -33h-752l-59 -338q215 -6 333.5 -152.5t80.5 -363.5q-38 -210 -196.5 -347t-371.5 -151l299 -350h-43z" />
    <glyph glyph-name="dvDD_RA" horiz-adv-x="1193" 
d="M57 1483l6 33h1336l-6 -33h-334l-66 -365h-329q-348 0 -392 -239q-11 -64 6 -111t56.5 -73.5t90 -39t112.5 -12.5h92q63 0 119.5 -10.5t107 -36t84 -63t47 -96t0.5 -130.5q-26 -139 -140.5 -230t-301.5 -95l297 -349h-43l-295 347l-416 -347h-51l426 351
q-197 17 -287 127t-61 266h35q-13 -76 2 -140.5t59 -115t125.5 -79t193.5 -28.5q176 0 287.5 83.5t134.5 209.5q12 70 -1 124t-44 87.5t-79 54.5t-98.5 29t-108.5 8h-93q-143 0 -228 69.5t-62 201.5q11 63 41.5 111.5t70.5 77.5t92.5 48t102 26t104.5 7h316l59 332h-967z
" />
    <glyph glyph-name="dvDDH_RA" horiz-adv-x="1282" 
d="M51 1483l6 33h1430l-6 -33h-418l-59 -342h-156q-163 0 -300.5 -57.5t-238.5 -181t-131 -298.5q-27 -153 23 -273t162.5 -185.5t265.5 -65.5q181 0 314 99.5t161 252.5q23 128 -43.5 211.5t-192.5 83.5q-113 0 -199.5 -69t-103.5 -183q-4 -28 -4 -45h-35q0 19 4 47
q23 130 118.5 206.5t225.5 76.5q136 0 213 -93.5t52 -234.5q-29 -168 -171.5 -276.5t-334.5 -108.5l297 -348h-43l-295 346l-416 -346h-51l426 352q-217 24 -332 175.5t-76 375.5q26 144 93 255.5t163.5 179.5t211 102.5t243.5 34.5h121l53 309h-977z" />
    <glyph glyph-name="dvNN_RA" horiz-adv-x="1679" 
d="M514 616q139 0 235 93t123 243l93 531h-598l-93 -531q-27 -149 38 -242.5t202 -93.5zM55 1483l6 33h1823l-6 -33h-332l-260 -1483h-35l111 627l-784 -668h-52l844 721l141 803h-512l-92 -529q-30 -167 -133.5 -268.5t-259.5 -101.5q-154 0 -229 103t-45 267l92 529h-277z
" />
    <glyph glyph-name="dvT_RA" horiz-adv-x="1394" 
d="M55 1483l6 33h1538l-6 -33h-329l-263 -1483h-34l125 707l-830 -707h-47v4l885 754q-20 142 -124.5 231.5t-275.5 89.5q-187 0 -331.5 -117t-180.5 -321h-34q26 148 109 256.5t197.5 161.5t246.5 53q89 0 161.5 -23.5t120 -63.5t78 -85t47.5 -96l115 639h-1174z" />
    <glyph glyph-name="dvTH_RA" horiz-adv-x="1515" 
d="M1087 0l97 541q-57 -127 -201 -217l-704 -484h-50v4l602 412q-84 -23 -165 -23q-251 0 -378 148t-83 389q3 19 16 72h221q68 0 129 8t128.5 31t119 60.5t91.5 101t55 147.5q24 134 -43 222.5t-209 88.5q-177 0 -280 -119t-103 -307h-35q0 202 115 330.5t303 128.5
q156 0 234.5 -99t51.5 -245q-15 -87 -55.5 -155t-94 -109.5t-123.5 -68.5t-140 -37.5t-148 -10.5h-190q-57 -250 58.5 -396.5t363.5 -146.5q126 0 241.5 55.5t196 156t102.5 224.5l144 814h366l-4 -33h-332l-262 -1483h-35z" />
    <glyph glyph-name="dvD_RA" horiz-adv-x="1243" 
d="M55 1483l6 33h1387l-6 -33h-348l-56 -312h-247q-141 0 -261 -45.5t-210 -146.5t-115 -246q-34 -195 64 -315.5t290 -120.5q51 0 105 12t110.5 39.5t103 68t82 103t48.5 137.5h30l-114 -657h-35l86 494q-43 -82 -131 -142l-576 -440h-47l498 379q-86 -27 -164 -27
q-205 0 -313.5 131.5t-71.5 337.5q21 121 81 213.5t146 147.5t186 82.5t212 27.5h213l51 279h-1004z" />
    <glyph glyph-name="dvDH_RA" horiz-adv-x="1419" 
d="M545 238q-116 0 -205.5 40t-135.5 121t-26 189q25 131 115.5 207t200.5 86v4q-52 10 -95 34t-75.5 65t-43 99t0.5 134q24 137 126.5 227t247.5 90q156 0 224 -99t24 -261h-35q42 152 -18 239.5t-201 87.5q-125 0 -218.5 -82.5t-115.5 -204.5q-26 -142 52 -227.5
t254 -85.5h110l-6 -33h-111q-174 0 -276.5 -78.5t-124.5 -201.5q-18 -101 24.5 -174.5t124 -108.5t189.5 -35q133 0 255 59.5t207 167t109 240.5l133 762l2 17h367l-4 -33h-332l-262 -1483h-35l99 563q-70 -131 -185 -211l-616 -471h-51l514 391q-98 -34 -207 -34z" />
    <glyph glyph-name="dvN_RA" horiz-adv-x="1599" 
d="M461 360q144 0 254 94.5t137 233.5q28 142 -51 234t-226 92q-151 0 -262 -91.5t-137 -238.5q-26 -143 53 -233.5t232 -90.5zM57 1483l6 33h1741l-6 -33h-332l-262 -1483h-35l97 543l-783 -666h-49l840 715l76 424h-629q91 -31 139.5 -119t26.5 -209q-28 -158 -148.5 -259
t-283.5 -101q-165 0 -253.5 100.5t-60.5 255.5q28 164 150.5 263.5t300.5 99.5h762l78 436h-1375z" />
    <glyph glyph-name="dvP_RA" horiz-adv-x="1300" 
d="M584 506q168 0 291.5 109t150.5 264l107 604h-766l-93 -522q-37 -216 42 -335.5t268 -119.5zM55 1483l6 33h1444l-6 -33h-332l-260 -1483h-35l127 721q-55 -95 -135 -158l-702 -561h-49l618 494q-77 -23 -153 -23q-198 0 -288 129.5t-50 358.5l92 522h-277z" />
    <glyph glyph-name="dvPH_RA" horiz-adv-x="2019" 
d="M563 506q167 0 282 112t144 279l103 586h-725l-93 -522q-38 -219 32.5 -337t256.5 -118zM55 1483l6 33h2163l-6 -33h-1092l-102 -586q63 131 180 215t281 84q185 0 289 -126t67 -335q-39 -220 -183.5 -347.5t-332.5 -127.5q-61 0 -115 12l7 33q49 -12 114 -12
q173 0 306 118t169 324q34 195 -62 311.5t-265 116.5q-84 0 -157.5 -25.5t-127 -68t-95.5 -99t-67 -115.5t-37 -120l-129 -735h-35l127 723q-56 -106 -137 -164l-696 -559h-47l618 496q-71 -23 -141 -23q-198 0 -276.5 127.5t-38.5 360.5l92 522h-277z" />
    <glyph glyph-name="dvB_RA" horiz-adv-x="1413" 
d="M936 369l-606 -463h-49l489 373q-91 -33 -190 -33q-98 0 -181.5 33t-142 92.5t-83 150.5t-5.5 201q39 225 199.5 358t375.5 133q173 0 275.5 -89t124.5 -222l102 580h-1190l6 33h1557l-6 -33h-332l-260 -1483h-35l98 551q-53 -106 -147 -182zM739 1182q-193 0 -342 -121
l549 -639q138 133 166 305q12 53 7.5 107t-17.5 104.5t-44.5 95t-74 77.5t-105.5 52t-139 19zM586 279q196 0 338 122l-549 639q-139 -126 -172 -317q-18 -103 4 -188t75.5 -140.5t131.5 -85.5t172 -30z" />
    <glyph glyph-name="dvBH_RA" horiz-adv-x="1562" 
d="M438 352q127 0 216 93t118 260l31 174h-250q-132 0 -227.5 -66.5t-118.5 -177.5q-23 -126 42.5 -204.5t188.5 -78.5zM438 319q-140 0 -215.5 88.5t-50.5 227.5q26 126 131.5 201t253.5 75h252l39 228q30 171 -17 265.5t-178 94.5q-116 0 -198.5 -76t-106.5 -211
q-6 -44 -6 -90h-35q0 46 6 90q26 149 119 235.5t221 86.5q146 0 204.5 -103t25.5 -290l-41 -230h452l107 605h366l-6 -33h-331l-263 -1483h-34l96 543l-780 -666h-54l842 717l51 285h-450l-31 -172q-33 -192 -129 -290t-240 -98z" />
    <glyph glyph-name="dvM_RA" horiz-adv-x="1505" 
d="M358 373q127 0 215 92t119 260l39 215h-252q-135 0 -232 -77.5t-120 -207.5q-23 -126 42.5 -204t188.5 -78zM1247 973l90 510h-475l-90 -510h475zM55 1483l6 33h1649l-6 -33h-332l-262 -1483h-35l99 547l-789 -670h-53l848 721l61 342h-475l-39 -213
q-35 -192 -130.5 -289.5t-238.5 -97.5q-140 0 -215.5 88t-50.5 227q26 144 134 231t259 87h252l90 510h-772z" />
    <glyph glyph-name="dvY_RA" horiz-adv-x="1474" 
d="M635 315q192 0 347 117.5t194 306.5l131 744h-514l-31 -183q-17 -93 -52.5 -163.5t-83 -115t-112 -72.5t-132.5 -39t-151 -11h-6q-2 -9 -4.5 -22.5t-3.5 -16.5q-47 -254 67 -399.5t351 -145.5zM55 1483l6 33h1618l-6 -33h-332l-260 -1483h-34l102 580q-61 -121 -193 -205
l-718 -494h-48v4l613 422q-79 -24 -176 -24q-248 0 -369 157.5t-74 419.5q6 36 17 72h37q72 0 131.5 8.5t120.5 33t106 64.5t80 106.5t51 155.5l31 183h-703z" />
    <glyph glyph-name="dvL_RA" horiz-adv-x="1814" 
d="M1102 213q-26 0 -76 4l6 35q46 -4 64 -4q204 0 334 125t165 325q20 117 0.5 209t-87.5 149.5t-177 57.5q-171 0 -285.5 -131t-154.5 -362l-2 -17h-35l2 17q42 228 -22.5 360.5t-231.5 132.5q-172 0 -281 -115t-141 -301q-23 -130 4 -229.5t113 -160t223 -60.5q18 0 64 4
l-6 -35q-40 -4 -60 -4q-146 0 -240.5 65t-126.5 173.5t-6 246.5q35 202 154.5 325.5t304.5 123.5q69 0 123.5 -22t87.5 -57t54 -82.5t28.5 -95t5.5 -97.5h4q20 64 52 121t81 110t120.5 86t156.5 37l59 336h-1339l6 33h1976l-6 -33h-602l-59 -336q113 -5 184.5 -67.5
t93.5 -161t0 -220.5q-18 -104 -60.5 -191t-107.5 -153t-157.5 -103.5t-202.5 -37.5zM557 -276l444 366h48l313 -366h-43l-295 346l-416 -346h-51z" />
    <glyph glyph-name="dvV_RA" horiz-adv-x="1394" 
d="M569 289q93 0 174.5 27.5t139.5 71.5t103.5 102t71 117t36.5 118q12 52 8 105t-15.5 102.5t-42 93t-72.5 76t-105.5 51t-141.5 18.5q-187 0 -335.5 -118.5t-184.5 -317.5q-18 -104 1.5 -189.5t69.5 -141t125 -85.5t168 -30zM1593 1483h-331l-261 -1483h-34l96 549
q-56 -109 -156 -184l-598 -453h-47l496 373q-92 -29 -189 -29q-101 0 -183 32.5t-137 92.5t-76.5 151.5t-2.5 202.5q25 142 107.5 250t198.5 163.5t247 55.5q181 0 281 -84.5t120 -218.5l103 582h-1172l6 33h1538z" />
    <glyph glyph-name="dvSH_RA" horiz-adv-x="1546" 
d="M565 805l47 -29l64 43q130 86 202 174.5t93 208.5q23 121 -48 210t-214 89q-129 0 -230.5 -86t-120.5 -201q-43 -252 207 -409zM1118 0l66 375l-172 110l-615 -485h-45v4l631 498l-371 233l-489 -325h-45v6l504 340l-37 22q-268 171 -219 436q24 135 132 227.5t257 92.5
q104 0 177 -48t101.5 -123.5t12.5 -162.5q-22 -125 -98.5 -220.5t-211.5 -186.5l-55 -37l549 -346l194 1106h367l-4 -33h-332l-262 -1483h-35z" />
    <glyph glyph-name="dvSS_RA" horiz-adv-x="1300" 
d="M594 506q132 0 235.5 70.5t157.5 187.5l-627 678l-86 -481q-38 -212 49.5 -333.5t270.5 -121.5zM1030 897l103 586h-764l632 -688q22 60 29 102zM55 1483l6 33h1444l-6 -33h-332l-260 -1483h-35l127 717q-56 -100 -139 -160l-694 -555h-51l614 492q-64 -21 -143 -21
q-192 0 -289.5 131.5t-56.5 356.5l92 522h-277z" />
    <glyph glyph-name="dvS_RA" horiz-adv-x="1722" 
d="M952 1251q-33 -175 -128 -277.5t-214 -135.5h834l112 645h-561zM55 1483l6 33h1805l-6 -33h-269l-262 -1483h-35l105 592l-629 -694h-45l686 755l27 154h-1190l-68 -389q-29 -184 34.5 -294t213.5 -110q256 0 311 373h35q-60 -405 -348 -405q-161 0 -236.5 120.5
t-44.5 317.5l74 420h225q185 0 313 110.5t163 300.5l43 232h-908z" />
    </font>
</defs>
</svg>
